+ ตอบกลับกระทู้
สรุปผลการค้นหา 1 ถึง 2 จากทั้งหมด 2
  1. #1
    Administrators รูปส่วนตัว Duckload.us
    สมัครเมื่อ
    Dec 2010
    โพสต์
    123,776
    Thanks
    7
    Thanked 128,789 Times in 57,297 Posts

    Exclamation [ฝรั่ง]-Star Wars The Complete Saga BDRip 1080p THAI-DTS ENG-DTS HighCode Nicky (1)-Blu-ray.DTS.1080p. [Rip]-[พากย์ไทย บรรยายไทย]



    เน็ตบ้าน ปล่อยเสร็จแน่นอน พักเครื่องบ้าง
    รายละเอียดหนัง
    ไม่ต้องบรรยายมากแล้วนะครับ คงรู้จักกันดี กับหนังชุดสุดดัง
    Star Wars The Complete Saga BDRip 1080p สตาร์ วอร์ส รวมภาค 1-6

    ข้อมูลไฟล์ ทุกภาค
    ภาพ 1920x816p Bitrate 5 500 Kbps ถอดรหัสไฟล์ด้วยระบบ HighCode จากเว็บนอก
    +เสียง DTS อังกฤษ Bitrate 755 Kbps 6 channels จากเว็บนอก
    +เสียง DTS ไทย Bitrate 755 Kbps 6 channels เครดิต [Zaiiasawin]
    +ซับไทย-อังกฤษ PGS Vob เครดิต [Zaiiasawin]

    เฟรมเรทภาพ-เสียง-ซับ ตามนี้ครับ [เท่ากันหมดทุกภาค ต่างกันแค่เวลาของตัวหนัง]

    Video
    ID : 1
    Format : AVC
    Format/Info : Advanced Video Codec
    Format profile : [email protected]
    Format settings, CABAC : Yes
    Format settings, ReFrames : 5 frames
    Codec ID : V_MPEG4/ISO/AVC
    Bit rate : 5 500 Kbps
    Width : 1 920 pixels
    Height : 816 pixels
    Display aspect ratio : 2.35:1
    Frame rate mode : Constant
    Frame rate : 23.976 fps

    Audio #1
    ID : 2
    Format : DTS
    Format/Info : Digital Theater Systems
    Mode : 16
    Format settings, Endianness : Big
    Codec ID : A_DTS
    Bit rate mode : Constant
    Bit rate : 755 Kbps
    Channel(s) : 6 channels
    Channel positions : Front: L C R, Side: L R, LFE
    Sampling rate : 48.0 KHz
    Bit depth : 24 bits
    Compression mode : Lossy
    Stream size : 735 MiB (10%)
    Title : English-DTS
    Language : English
    Default : No
    Forced : No

    Audio #2
    ID : 6
    Format : DTS
    Format/Info : Digital Theater Systems
    Mode : 16
    Format settings, Endianness : Big
    Codec ID : A_DTS
    Bit rate mode : Constant
    Bit rate : 755 Kbps
    Channel(s) : 6 channels
    Channel positions : Front: L C R, Side: L R, LFE
    Sampling rate : 48.0 KHz
    Bit depth : 24 bits
    Compression mode : Lossy
    Stream size : 735 MiB (10%)
    Title : Thai-DTS [Zaiiasawin]
    Language : Thai
    Default : Yes
    Forced : Yes

    Audio #3
    ID : 7
    Format : AC-3
    Format/Info : Audio Coding 3
    Mode extension : CM (complete main)
    Format settings, Endianness : Big
    Codec ID : A_AC3
    Bit rate mode : Constant
    Bit rate : 384 Kbps
    Channel(s) : 6 channels
    Channel positions : Front: L C R, Side: L R, LFE
    Sampling rate : 48.0 KHz
    Compression mode : Lossy
    Stream size : 374 MiB (5%)
    Title : English Br-Master
    Language : English
    Default : No
    Forced : No

    Text #1
    ID : 3
    Format : UTF-8
    Codec ID : S_TEXT/UTF8
    Codec ID/Info : UTF-8 Plain Text
    Title : forced
    Language : English
    Default : Yes
    Forced : No

    Text #2
    ID : 4
    Format : UTF-8
    Codec ID : S_TEXT/UTF8
    Codec ID/Info : UTF-8 Plain Text
    Title : SDH
    Language : English
    Default : No
    Forced : No

    Text #3
    ID : 5
    Format : UTF-8
    Codec ID : S_TEXT/UTF8
    Codec ID/Info : UTF-8 Plain Text
    Language : English
    Default : No
    Forced : No

    Text #4
    ID : 8
    Format : PGS
    Muxing mode : zlib
    Codec ID : S_HDMV/PGS
    Codec ID/Info : Picture based subtitle format used on BDs/HD-DVDs
    Title : Thai PGS
    Language : Thai
    Default : No
    Forced : No

    Text #5
    ID : 9
    Format : PGS
    Muxing mode : zlib
    Codec ID : S_HDMV/PGS
    Codec ID/Info : Picture based subtitle format used on BDs/HD-DVDs
    Title : English PGS
    Language : English
    Default : No
    Forced : No

    Text #6
    ID : 10
    Format : VobSub
    Muxing mode : zlib
    Codec ID : S_VOBSUB
    Codec ID/Info : Picture based subtitle format used on DVDs
    Language : Thai
    Default : No
    Forced : No

    Text #7
    ID : 11
    Format : VobSub
    Muxing mode : zlib
    Codec ID : S_VOBSUB
    Codec ID/Info : Picture based subtitle format used on DVDs
    Language : English
    Default : No
    Forced : No

    SS 1-6












    1
    http://www.filecondo.com/dl.php?f=P3e5211AhX7o
    2
    http://www.filecondo.com/dl.php?f=xff7db1AhWzb
    3
    http://www.filecondo.com/dl.php?f=sYbc03b61ECR
    4
    http://www.filecondo.com/dl.php?f=jK4fddb62AYX
    5
    http://www.filecondo.com/dl.php?f=cH6a6fb61EZy
    6
    http://www.filecondo.com/dl.php?f=w95e7a1AhX2r

  2. #2
    Senior Member
    สมัครเมื่อ
    Jul 2013
    โพสต์
    1,784
    Thanks
    0
    Thanked 0 Times in 0 Posts
    โหลดไม่ได้แล้วครับผม รบกวนด้วยนะครับ

+ ตอบกลับกระทู้

ข้อมูลกระทู้

Users Browsing this Thread

ในขณะนี้มี 1 ท่านดูกระทู้อยู่. (0 สมาชิกและ 1 ผู้เยี่ยมชม)

     

กฎการโพสต์ข้อความ

  • ท่าน ไม่สามารถ ตั้งกระทู้ใหม่ได้
  • ท่าน ไม่สามารถ ตอบกระทู้ได้
  • ท่าน ไม่สามารถ แนบไฟล์ได้
  • ท่าน ไม่สามารถ แก้ไขข้อความโพสต์ได้
  • BB code สถานะ เปิด
  • Smilies สถานะ เปิด
  • [IMG] สถานะ เปิด
  • HTML สถานะ ปิด