+ Reply to Thread
Results 1 to 2 of 2
  1. #1
    Administrators Duckload.us's Avatar
    Join Date
    Dec 2010
    Posts
    120,700
    Thanks
    7
    Thanked 126,112 Times in 56,354 Posts

    Angry [ญี่ปุ่น]-ใหม่[*เล็กพริกขี้หนู 1080p Super HQ*] When Marnie Was There (2014) : ฝันของฉันต้องมีเธอ [พากย์ไทย 5.1 + ญีปุ่น DTS @ZEZA]-[บรรยายไทย+อังกฤษ-[เสียงไทย + ซับไทย From MASTER +ซับ PGS คมชัด]




    wrote:

    ผลงานอนิเมชั่นเรื่องสุดท้ายของสตูดิโอจิบลิก่อนหยุด พักการสร้างไปอย่างไม่ มีกำหนด ดัดแปลงจากวรรณกรรมเยาวชนคลาสสิกปี 1967 ของ โจแอน จี. โรบินสัน
    เรื่องราวของ แอนนา ผู้โดดเดี่ยวไร้เพื่อนเพราะเข้ากับคนอื่นไม่ค่อยจะได ้ จนกระทั่งเธอพบกับมาร์นี จนกระทั่งเธอพบกับ มาร์นี
    แต่ดูเหมือนว่ามาร์นีจะไม่ได้เป็นอย่างที่เธอเห็นเสี ยแล้ว เรื่องราวเกี่ยวกับผี และความจริงที่ต้องบอกเล่าเกี่ยวกับความสัมพันธ์ของเ พื่อน ครอบครัว และความโดดเดี่ยว
    วันหนึ่งเธอเข้าไปเดินวุ่นวายอยู่บนเนินทราย และรอบ ๆ บ่อน้ำ จนได้พบกับบ้านที่เธอจำได้ และเธอเพิ่งจะพบเจอกับสาวน้อยแปลกหน้าที่มีนามว่า มาร์นี จนวันหนึ่ง มาร์นี หายตัวไป
    และครอบครัวลินซีย์ ก็เพิ่งย้ายเข้ามายังบ้านหลังนี้ แอนนาเริ่มสนิทกับลินซีย์ และได้เรียนรู้ความจริงที่แปลกประหลาดเกี่ยวกับมาร์น ีผู้ที่ไม่ได้เป็นอย่าง ที่เห็น!!!


    wrote:

    Format : Matroska
    Format version : Version 4 / Version 2
    File size : 3.84 GiB
    Duration : 1h 42mn
    Overall bit rate : 5 356 Kbps
    Movie name : {MINI Super-HQ}_When.Marnie.Was.There.2014.1080p.BrRip.DTS.x26 [email protected]

    Video
    ID : 1
    Format : AVC
    Format/Info : Advanced Video Codec
    Format profile : [email protected]
    Format settings, CABAC : Yes
    Format settings, ReFrames : 4 frames
    Codec ID : V_MPEG4/ISO/AVC
    Duration : 1h 42mn
    Bit rate : 4 114 Kbps
    Width : 1 920 pixels
    Height : 1 036 pixels
    Display aspect ratio : 1.85:1
    Frame rate mode : Constant
    Frame rate : 23.976 fps
    Color space : YUV
    Chroma subsampling : 4:2:0
    Bit depth : 8 bits
    Scan type : Progressive
    Bits/(Pixel*Frame) : 0.086
    Stream size : 2.94 GiB (77%)
    Title : {MINI Super-HQ}_When.Marnie.Was.There.2014.1080p.BrRip.DTS.x26 [email protected]
    Writing library : x264 core 130 r2273 b3065e6
    Encoding settings : cabac=1 / ref=3 / deblock=1:0:0 / analyse=0x3:0x113 / me=umh / subme=11 / psy=1 / psy_rd=1.00:0.00 / mixed_ref=1 / me_range=48 / chroma_me=1 / trellis=2 / 8x8dct=1 / cqm=0 / deadzone=21,11 / fast_pskip=1 / chroma_qp_offset=-2 / threads=60 / lookahead_threads=5 / sliced_threads=0 / nr=0 / decimate=1 / interlaced=0 / bluray_compat=0 / constrained_intra=0 / bframes=3 / b_pyramid=2 / b_adapt=1 / b_bias=0 / direct=1 / weightb=1 / open_gop=0 / weightp=2 / keyint=240 / keyint_min=24 / scenecut=40 / intra_refresh=0 / rc_lookahead=40 / rc=2pass / mbtree=1 / bitrate=4114 / ratetol=1.0 / qcomp=0.60 / qpmin=0 / qpmax=69 / qpstep=4 / cplxblur=20.0 / qblur=0.5 / ip_ratio=1.40 / aq=1:1.00
    Language : Japanese
    Default : Yes
    Forced : No

    Audio #1
    ID : 2
    Format : AC-3
    Format/Info : Audio Coding 3
    Mode extension : CM (complete main)
    Format settings, Endianness : Big
    Codec ID : A_AC3
    Duration : 1h 42mn
    Bit rate mode : Constant
    Bit rate : 384 Kbps
    Channel(s) : 6 channels
    Channel positions : Front: L C R, Side: L R, LFE
    Sampling rate : 48.0 KHz
    Bit depth : 16 bits
    Compression mode : Lossy
    Stream size : 282 MiB (7%)
    Title : Thai DVD Master
    Language : Thai
    Default : Yes
    Forced : Yes

    Audio #2
    ID : 3
    Format : DTS
    Format/Info : Digital Theater Systems
    Mode : 16
    Format settings, Endianness : Big
    Codec ID : A_DTS
    Duration : 1h 42mn
    Bit rate mode : Constant
    Bit rate : 768 Kbps
    Channel(s) : 5 channels
    Channel positions : Front: L C R, Side: L R
    Sampling rate : 48.0 KHz
    Bit depth : 24 bits
    Compression mode : Lossy
    Stream size : 564 MiB (14%)
    Title : Japanese DTS
    Language : Japanese
    Default : No
    Forced : No

    Text #1
    ID : 4
    Format : VobSub
    Codec ID : S_VOBSUB
    Codec ID/Info : The same subtitle format used on DVDs
    Title : Thai 480p
    Language : Thai
    Default : No
    Forced : No

    Text #2
    ID : 5
    Format : VobSub
    Codec ID : S_VOBSUB
    Codec ID/Info : The same subtitle format used on DVDs
    Title : Thai 720p
    Language : Thai
    Default : No
    Forced : No

    Text #3
    ID : 6
    Format : VobSub
    Codec ID : S_VOBSUB
    Codec ID/Info : The same subtitle format used on DVDs
    Title : Thai 1080p
    Language : Thai
    Default : Yes
    Forced : Yes

    Text #4
    ID : 7
    Format : VobSub
    Codec ID : S_VOBSUB
    Codec ID/Info : The same subtitle format used on DVDs
    Title : Thai 1080p Yellow
    Language : Thai
    Default : No
    Forced : No

    Text #5
    ID : 8
    Format : VobSub
    Codec ID : S_VOBSUB
    Codec ID/Info : The same subtitle format used on DVDs
    Title : Thai 1080p Low
    Language : Thai
    Default : No
    Forced : No

    Text #6
    ID : 9
    Format : VobSub
    Codec ID : S_VOBSUB
    Codec ID/Info : The same subtitle format used on DVDs
    Title : Thai 1080p BIG
    Language : Thai
    Default : No
    Forced : No

    Text #7
    ID : 10
    Format : PGS
    Codec ID : S_HDMV/PGS
    Codec ID/Info : The same subtitle format used on BDs/HD-DVDs
    Title : Thai PGS
    Language : Thai
    Default : No
    Forced : No

    Text #8
    ID : 11
    Format : PGS
    Codec ID : S_HDMV/PGS
    Codec ID/Info : The same subtitle format used on BDs/HD-DVDs
    Title : Thai PGS Yellow
    Language : Thai
    Default : No
    Forced : No

    Text #9
    ID : 12
    Format : VobSub
    Codec ID : S_VOBSUB
    Codec ID/Info : The same subtitle format used on DVDs
    Title : English
    Language : English
    Default : No
    Forced : No


    wrote:

    SS แค๊ปจากตัวไฟล์ ค่ะ








    ส่งมอบ โดย : NongZEZA

    http://www.filecondo.com/dl.php?f=wf37f11KkCaj fix

    http://cornfile.com/7q8ko12cq8yh fix

  2. The Following User Says Thank You to Duckload.us For This Useful Post:

    xchamp (02-09-2016)

  3. #2

+ Reply to Thread

Thread Information

Users Browsing this Thread

There are currently 1 users browsing this thread. (0 members and 1 guests)

     

Posting Permissions

  • You may not post new threads
  • You may not post replies
  • You may not post attachments
  • You may not edit your posts