+ ตอบกลับกระทู้
สรุปผลการค้นหา 1 ถึง 2 จากทั้งหมด 2
  1. #1
    Administrators รูปส่วนตัว Duckload.us
    สมัครเมื่อ
    Dec 2010
    โพสต์
    128,217
    Thanks
    7
    Thanked 132,316 Times in 58,576 Posts

    Exclamation [ฝรั่ง]-(มัดรวมปี 3) Black Sails : The Complete 3rd Season (HDTV 720p)-HDTV.AC-3.720p. [From HD-TV]-[Soundtrack บรรยายไทย]






    Black Sails : The Complete Third Season (HDTV 720p)

    เรื่องย่อ

    This pirate adventure centers on the tales of Captain Flint and his men and takes place twenty years prior to Robert Louis Stevenson s classic Treasure Island. Flint, the most brilliant and most feared pirate captain of his day, takes on a fast-talking young addition to his crew who goes by the name John Silver. Threatened with extinction on all sides, they fight for the survival of New Providence Island, the most notorious criminal haven of its day, a debauched paradise teeming with pirates, prostitutes, thieves and fortune seekers, a place defined by both its enlightened ideals and its stunning brutality.

    เรื่อง Black Sails เป็นซีรี่ย์เกี่ยวกับยุคทองของโจรสลัดแห่งทะเลแคริบเ บียน การตามล่าเรือสมบัติและการช่วงชิงอำนาจ ซีรี่ย์เรื่องนี้เป็นคล้ายๆกับ prequel ของ "Treasure Island" นิยายคลาสสิคของโรเบิร์ต หลุยส์ สตีเวนสัน เนื่องจากกล่าวถึงเหตุการณ์ที่เกิดขึ้นเมื่อ 20 ปีก่อนหน้าเรื่องราวที่เล่าในหนังสือ ตัวละครอย่าง กัปตันฟลินต์, จอห์น ซิลเวอร์และบิลลี่ โบนส์เป็นตัวละครที่หยิบยืมมาจากนิยายต้นฉบับ ส่วนตัวละครอย่างเกตส์, พวกกัธรี่ ฯลฯ เป็นตัวละครที่แต่งขึ้นมาใหม่ นอกจากนี้ยังมีตัวละครอย่าง กัปตันเวน, แร็คแฮม, แอนน์ บอนนี่ และสลัดเคราดำที่อ้างอิงมาจากโจรสลัดตัวจริงในประวัต ิศาสตร์อีกด้วย

    นักแสดง -

    Toby Stephens ... Captain Flint
    Hannah New ... Eleanor Guthrie
    Luke Arnold ... John Silver
    Zach McGowan ... Captain Charles Vane
    Tom Hopper ... Billy Bones
    Jessica Parker Kennedy ... Max
    Toby Schmitz ... Rackham
    Clara Paget ... Anne Bonny
    Mark Ryan ... Gates
    Hakeem Kae-Kazim ... Mr. Scott


    General
    Unique ID : 250784784134510576457481160211216462788 (0xBCAB647D3F8346678DD2B380951FF3C4)
    Complete name : D:Black Sails Season 3 (720p HDTV)Black Sails - 3x01 - XIX. [PROPER 720p HDTV x264-BATV] (Thai subtitle by ShAlex).mkv
    Format : Matroska
    Format version : Version 4 / Version 2
    File size : 1.27 GiB
    Duration : 59mn 58s
    Overall bit rate : 3 031 Kbps
    Movie name : Thai subtitle by ShAlex
    Encoded date : UTC 2016-02-08 21:13:32
    Writing application : mkvmerge v6.2.0 ( Promised Land ) built on Apr 28 2013 12:22:01
    Writing library : libebml v1.3.0 + libmatroska v1.4.0

    Video
    ID : 1
    Format : AVC
    Format/Info : Advanced Video Codec
    Format profile : [email protected]
    Format settings, CABAC : Yes
    Format settings, ReFrames : 5 frames
    Codec ID : V_MPEG4/ISO/AVC
    Duration : 59mn 58s
    Bit rate : 2 587 Kbps
    Width : 1 280 pixels
    Height : 720 pixels
    Display aspect ratio : 16:9
    Frame rate mode : Constant
    Frame rate : 23.976 fps
    Color space : YUV
    Chroma subsampling : 4:2:0
    Bit depth : 8 bits
    Scan type : Progressive
    Bits/(Pixel*Frame) : 0.117
    Stream size : 1.08 GiB (85%)
    Title : Episode 301 : XIX.
    Writing library : x264 core 148 r2638 7599210
    Encoding settings : cabac=1 / ref=5 / deblock=1:0:0 / analyse=0x3:0x113 / me=umh / subme=8 / psy=1 / psy_rd=1.00:0.00 / mixed_ref=1 / me_range=16 / chroma_me=1 / trellis=1 / 8x8dct=1 / cqm=0 / deadzone=21,11 / fast_pskip=1 / chroma_qp_offset=-2 / threads=22 / lookahead_threads=3 / sliced_threads=0 / nr=0 / decimate=1 / interlaced=0 / bluray_compat=0 / constrained_intra=0 / bframes=3 / b_pyramid=2 / b_adapt=2 / b_bias=0 / direct=3 / weightb=1 / open_gop=0 / weightp=2 / keyint=250 / keyint_min=23 / scenecut=40 / intra_refresh=0 / rc_lookahead=50 / rc=crf / mbtree=1 / crf=18.0 / qcomp=0.60 / qpmin=0 / qpmax=69 / qpstep=4 / ip_ratio=1.40 / aq=1:1.00
    Language : English
    Default : Yes
    Forced : No
    Matrix coefficients : BT.709

    Audio
    ID : 2
    Format : AC-3
    Format/Info : Audio Coding 3
    Mode extension : CM (complete main)
    Format settings, Endianness : Big
    Codec ID : A_AC3
    Duration : 59mn 58s
    Bit rate mode : Constant
    Bit rate : 384 Kbps
    Channel count : 6 channels
    Channel positions : Front: L C R, Side: L R, LFE
    Sampling rate : 48.0 KHz
    Bit depth : 16 bits
    Compression mode : Lossy
    Stream size : 165 MiB (13%)
    Title : English
    Language : English
    Default : Yes
    Forced : No

    Text #1
    ID : 3
    Format : PGS
    Codec ID : S_HDMV/PGS
    Codec ID/Info : The same subtitle format used on BDs/HD-DVDs
    Title : Thai PGS 720p
    Language : Thai
    Default : Yes
    Forced : No

    Text #2
    ID : 4
    Format : VobSub
    Codec ID : S_VOBSUB
    Codec ID/Info : The same subtitle format used on DVDs
    Title : Thai VobSub
    Language : Thai
    Default : No
    Forced : No

    Text #3
    ID : 5
    Format : UTF-8
    Codec ID : S_TEXT/UTF8
    Codec ID/Info : UTF-8 Plain Text
    Title : English SRT
    Language : English
    Default : No
    Forced : No



    Screenshot












    1
    http://www.filecondo.com/dl.php?f=gA560bbaXTFp
    2
    http://www.filecondo.com/dl.php?f=Vd72fcbaXTLv
    3
    http://www.filecondo.com/dl.php?f=Ii0f9fbaXTRg
    4
    http://www.filecondo.com/dl.php?f=ASe14fbaXTX8
    5
    http://www.filecondo.com/dl.php?f=zobf18baXU3U
    6
    http://www.filecondo.com/dl.php?f=600ed9baXUbH
    7
    http://www.filecondo.com/dl.php?f=R7ff7bbaXUiV
    8
    http://www.filecondo.com/dl.php?f=hae1dfbaXUos
    9
    http://www.filecondo.com/dl.php?f=H48e6ebaXUve
    10
    http://www.filecondo.com/dl.php?f=lNa845baXUDm

  2. #2
    Senior Member
    สมัครเมื่อ
    Jul 2012
    โพสต์
    7,548
    Thanks
    0
    Thanked 0 Times in 0 Posts
    ขอบคุณมากจ้า

+ ตอบกลับกระทู้

ข้อมูลกระทู้

Users Browsing this Thread

ในขณะนี้มี 1 ท่านดูกระทู้อยู่. (0 สมาชิกและ 1 ผู้เยี่ยมชม)

     

กฎการโพสต์ข้อความ

  • ท่าน ไม่สามารถ ตั้งกระทู้ใหม่ได้
  • ท่าน ไม่สามารถ ตอบกระทู้ได้
  • ท่าน ไม่สามารถ แนบไฟล์ได้
  • ท่าน ไม่สามารถ แก้ไขข้อความโพสต์ได้
  • BB code สถานะ เปิด
  • Smilies สถานะ เปิด
  • [IMG] สถานะ เปิด
  • HTML สถานะ ปิด