เรื่องย่อแอนิเมชั่นเรื่อง Zootopia นครสัตว์มหาสนุก

Zootopia นครสัตว์มหาสนุก : มหานครสุดทันสมัยของสัตว์เลี้ยงลูกด้วยนมแห่งซูโทเปี ย คือเมืองที่ไม่เหมือนใคร ประกอบไปด้วยแหล่งที่อยู่อาศัยอย่างเช่น จตุรัสซาฮารา อันหรูหรา และ ทุนดราทาวน์อันหนาวเหน็บ มันคือหม้อใบใหญ่ที่เหล่าสัตว์ต่างๆจากทุกๆสภาพแวดล้ อมมาอาศัยอยู่ด้วยกัน สถานที่ซึ่งไม่ว่าคุณจะเป็นใคร จากช้างตัวมหึมาไปจนถึงกระแตตัวจิ๋ว คุณสามารถเป็นอะไรก็ได้ แต่เมื่อเจ้าหน้าที่ตำรวจโลกสวยอย่าง จูดี้ ฮอบส์ (พากย์เสียงโดย กินนิเฟอร์ กู๊ดวิน) ได้มาถึง เธอก็รู้ว่าการเป็นกระต่ายตัวแรกในกองตำรวจของเหล่าส ัตว์ใหญ่ผู้บึกบึนนั้นไม่ใช่เรื่องง่าย ด้วยความมุ่งมุ่นในการพิสูจน์ตัวเอง เธอจึงกระโจนเข้าสู่การคลี่คลายคดี ถึงแม้ว่ามันจะต้องเป็นการร่วมมือกับสุนัขจิ้งจอก18 มงกุฏปากไว นิค ไวลด์ (พากย์เสียงโดย เจสัน เบตแมน) ในการไขปริศนาลึกลับนี้

Format : Matroska
Format version : Version 4 / Version 2
File size : 2.34 GiB
Duration : 1h 43mn
Overall bit rate mode : Variable
Overall bit rate : 3 223 Kbps
Encoded date : UTC 2016-05-18 02:33:46
Writing application : mkvmerge v8.9.0 ('Father Daughter') 32bit
Writing library : libebml v1.3.3 + libmatroska v1.4.4

Video
ID : 1
Format : AVC
Format/Info : Advanced Video Codec
Format profile : [email protected]
Format settings, CABAC : Yes
Format settings, ReFrames : 4 frames
Codec ID : V_MPEG4/ISO/AVC
Duration : 1h 43mn
Bit rate mode : Variable
Bit rate : 2 967 Kbps
Maximum bit rate : 40.0 Mbps
Width : 1 920 pixels
Height : 800 pixels
Display aspect ratio : 2.40:1
Frame rate mode : Constant
Frame rate : 25.000 fps
Color space : YUV
Chroma subsampling : 4:2:0
Bit depth : 8 bits
Scan type : Progressive
Bits/(Pixel*Frame) : 0.077
Stream size : 2.15 GiB (92%)
Title : Zootopia.2016.1080p.HC.WEBRip.x264.AC3.THEATER-Zakky
Language : English
Default : Yes
Forced : Yes
Color range : Limited
Color primaries : BT.709
Transfer characteristics : BT.709
Matrix coefficients : BT.709

Audio
ID : 2
Format : AC-3
Format/Info : Audio Coding 3
Mode extension : CM (complete main)
Format settings, Endianness : Big
Codec ID : A_AC3
Duration : 1h 43mn
Bit rate mode : Constant
Bit rate : 192 Kbps
Channel(s) : 2 channels
Channel positions : Front: L R
Sampling rate : 48.0 KHz
Frame rate : 31.250 fps (1536 spf)
Compression mode : Lossy
Delay relative to video : -40ms
Stream size : 143 MiB (6%)
Title : AC3 THEATER ZAKKY
Language : Thai
Default : Yes
Forced : Yes







Part 01
: Part 02 : Part 03


สามารถโหลดสลับกันได้ (สำรองเผื่อ One2Up ถูกลบ)

Part 01 : Part 02 : Part 03

Password : one2load-movie.com


กด Like แทนคำขอบคุณ

ดาวน์โหลดหนังอีกมากมายได้ที่นี่



Download Zootopia นครสัตว์มหาสนุก

สนใจสมัคร VIP เริ่มต้นที่ 50 บาท คลิ๊ก