+ ตอบกลับกระทู้
สรุปผลการค้นหา 1 ถึง 3 จากทั้งหมด 3
  1. #1
    Administrators รูปส่วนตัว Duckload.us
    สมัครเมื่อ
    Dec 2010
    โพสต์
    116,973
    Thanks
    7
    Thanked 123,252 Times in 55,238 Posts

    Exclamation [ฝรั่ง]-The Dark Knight Rises (2012) - CtHts : แบทแมน อัศวินรัตติกาลผงาด [Encode.MKV.1080p.ENG-DTSHD-MA.5.1.THAI-DD.5.1]-[เสียง:ไทย/อังกฤษ][บรรยาย:ไทย/อังกฤษ]-[เสียงไทยและซับไทยจาก Bluray Master]






    2h 44min | Action, Thriller | 19 July 2012 (Thailand)

    Director: Christopher Nolan
    Writers: Jonathan Nolan (screenplay), Christopher Nolan (screenplay)
    Stars: Christian Bale, Tom Hardy, Anne Hathaway

    Eight years after the Joker s reign of anarchy, the Dark Knight, with the help of the enigmatic Selina, is forced from his imposed exile to save Gotham City, now on the edge of total annihilation, from the brutal guerrilla terrorist Bane.

    เป็นเวลาถึง 8 ปีแล้วที่แบทแมนหายตัวไปในยามค่ำคืน พลิกจากมาดฮีโร่กลายเป็นผู้หลบหนีอย่างรวดเร็ว จนเป็นที่เข้าใจว่ายอมรับผิดในการตายของอัยการเขตฮาร ์วีย์ เดนท์ อัศวินรัตติกาลยอมสละทุกสิ่ง เพื่อสิ่งที่เขาและผู้บัญชาการกอร์ดอนต่างหวังว่าจะด ียิ่งขึ้น ระหว่างที่มีการโกหกนี้อาชญากรที่ก่อเหตุในเมืองก็อธ แธมถูกปราบปรามภายใต้ กฏหมายป้องกันอาชญากรรมเดนท์แอ็ค

    แต่ทุกอย่างจะเปลี่ยนแปลงไปเมื่อมีแมวขโมยเจ้าเล่ห์เ ผยโฉมพร้อมกับปฏิบัติ การลับ ที่น่ากลัวไปกว่านั้นคือไม่ว่าเบนจะมีวิวัฒนาการขนาด ไหน วายร้ายที่สวมหน้ากากไว้ก็มีแผนการป่วนก็อธแธม ซึ่งบีบให้บรูซต้องออกจากการปลีกตัว แต่ถึงแม้เบนจะกลับสวมผ้าคลุมและหน้ากากอีกครั้ง กลับดูเหมือนเขาไม่เหมาะกับการเป็นแบทแมนอีกต่อไป




    General
    Unique ID : 228073304162952170918613160191062258310 (0xAB955212DC17C6089891501191853286)
    Complete name : The Dark Knight Rises (2012) Encode 1080p - CtHts.mkv
    Format : Matroska
    Format version : Version 4 / Version 2
    File size : 20.2 GiB
    Duration : 2h 44mn
    Overall bit rate mode : Variable
    Overall bit rate : 17.6 Mbps
    Movie name : The Dark Knight Rises (2012) Encode 1080p - CtHts
    Encoded date : UTC 2016-05-28 10:57:55
    Writing application : mkvmerge v7.1.0 ( Good Love ) 32bit built on Jul 27 2014 12:59:18
    Writing library : libebml v1.3.0 + libmatroska v1.4.1
    DURATION : 02:43:29.550000000
    NUMBER_OF_FRAMES : 3826
    NUMBER_OF_BYTES : 38993500
    _STATISTICS_WRITING_APP : mkvmerge v7.1.0 ( Good Love ) 32bit built on Jul 27 2014 12:59:18
    _STATISTICS_WRITING_DATE_UTC : 2016-05-28 10:57:55
    _STATISTICS_TAGS : BPS DURATION NUMBER_OF_FRAMES NUMBER_OF_BYTES

    Video
    ID : 1
    Format : AVC
    Format/Info : Advanced Video Codec
    Format profile : [email protected]
    Format settings, CABAC : Yes
    Format settings, ReFrames : 4 frames
    Codec ID : V_MPEG4/ISO/AVC
    Duration : 2h 44mn
    Bit rate : 15.2 Mbps
    Nominal bit rate : 13.0 Mbps
    Width : 1 920 pixels
    Height : 1 080 pixels
    Display aspect ratio : 16:9
    Frame rate mode : Constant
    Frame rate : 23.976 fps
    Color space : YUV
    Chroma subsampling : 4:2:0
    Bit depth : 8 bits
    Scan type : Progressive
    Bits/(Pixel*Frame) : 0.306
    Stream size : 17.5 GiB (87%)
    Title : The Dark Knight Rises (2012) Encode 1080p - CtHts
    Writing library : x264 core 116 r2057 0ba8a9c
    Encoding settings : cabac=1 / ref=4 / deblock=1:-3:-3 / analyse=0x3:0x133 / me=umh / subme=10 / psy=1 / psy_rd=1.00:0.00 / mixed_ref=1 / me_range=32 / chroma_me=1 / trellis=2 / 8x8dct=1 / cqm=0 / deadzone=21,11 / fast_pskip=0 / chroma_qp_offset=-2 / threads=14 / sliced_threads=0 / nr=0 / decimate=0 / interlaced=0 / bluray_compat=0 / constrained_intra=0 / bframes=7 / b_pyramid=2 / b_adapt=2 / b_bias=0 / direct=3 / weightb=1 / open_gop=0 / weightp=2 / keyint=250 / keyint_min=23 / scenecut=40 / intra_refresh=0 / rc_lookahead=40 / rc=2pass / mbtree=0 / bitrate=13000 / ratetol=1.0 / qcomp=0.65 / qpmin=0 / qpmax=40 / qpstep=4 / cplxblur=20.0 / qblur=0.5 / vbv_maxrate=50000 / vbv_bufsize=50000 / nal_hrd=none / ip_ratio=1.25 / pb_ratio=1.25 / aq=1:0.67
    Language : English
    Default : Yes
    Forced : Yes
    DURATION : 02:44:32.905000000
    NUMBER_OF_FRAMES : 236713
    NUMBER_OF_BYTES : 16039023352
    _STATISTICS_WRITING_APP : mkvmerge v7.1.0 ( Good Love ) 32bit built on Jul 27 2014 12:59:18
    _STATISTICS_WRITING_DATE_UTC : 2016-05-28 10:57:55
    _STATISTICS_TAGS : BPS DURATION NUMBER_OF_FRAMES NUMBER_OF_BYTES

    Audio #1
    ID : 2
    Format : DTS
    Format/Info : Digital Theater Systems
    Format profile : MA / Core
    Codec ID : A_DTS
    Duration : 2h 44mn
    Bit rate mode : Variable
    Bit rate : 1 561 Kbps / 1 510 Kbps
    Channel(s) : 6 channels
    Channel positions : Front: L C R, Side: L R, LFE
    Sampling rate : 48.0 KHz
    Bit depth : 24 bits
    Compression mode : Lossless / Lossy
    Title : Eng DTSHD-MA 5.1
    Language : English
    Default : No
    Forced : No

    Audio #2
    ID : 3
    Format : AC-3
    Format/Info : Audio Coding 3
    Mode extension : CM (complete main)
    Format settings, Endianness : Big
    Codec ID : A_AC3
    Duration : 2h 44mn
    Bit rate mode : Constant
    Bit rate : 448 Kbps
    Channel(s) : 6 channels
    Channel positions : Front: L C R, Side: L R, LFE
    Sampling rate : 48.0 KHz
    Bit depth : 16 bits
    Compression mode : Lossy
    Stream size : 527 MiB (3%)
    Title : Thai Dolby Digital 5.1 from BD Master
    Language : Thai
    Default : Yes
    Forced : Yes

    Text #1
    ID : 4
    Format : VobSub
    Codec ID : S_VOBSUB
    Codec ID/Info : The same subtitle format used on DVDs
    Title : Thai 1080p from BD Master
    Language : Thai
    Default : No
    Forced : No

    Text #2
    ID : 5
    Format : VobSub
    Codec ID : S_VOBSUB
    Codec ID/Info : The same subtitle format used on DVDs
    Title : Thai 1080p Outside from BD Master
    Language : Thai
    Default : No
    Forced : No

    Text #3
    ID : 6
    Format : PGS
    Codec ID : S_HDMV/PGS
    Codec ID/Info : The same subtitle format used on BDs/HD-DVDs
    Title : Thai PGS from BD Master
    Language : Thai
    Default : No
    Forced : No

    Text #4
    ID : 7
    Format : PGS
    Codec ID : S_HDMV/PGS
    Codec ID/Info : The same subtitle format used on BDs/HD-DVDs
    Title : Thai PGS Outside from BD Master
    Language : Thai
    Default : No
    Forced : No

    Text #5
    ID : 8
    Format : VobSub
    Codec ID : S_VOBSUB
    Codec ID/Info : The same subtitle format used on DVDs
    Title : Eng 1080p
    Language : English
    Default : No
    Forced : No

    Text #6
    ID : 9
    Format : PGS
    Codec ID : S_HDMV/PGS
    Codec ID/Info : The same subtitle format used on BDs/HD-DVDs
    Title : Eng PGS
    Language : English
    Default : No
    Forced : No




    http://www.mekafile.com/dl.php?f=O0287d1B6Uzk

  2. The Following User Says Thank You to Duckload.us For This Useful Post:

    Sazabi (05-30-2016)

  3. #2
    Senior Member
    สมัครเมื่อ
    Jan 2013
    โพสต์
    705
    Thanks
    705
    Thanked 0 Times in 0 Posts
    ขอบคุณมากครับ ^^

  4. #3
    Senior Member
    สมัครเมื่อ
    Mar 2014
    โพสต์
    470
    Thanks
    0
    Thanked 0 Times in 0 Posts
    Thank you.

+ ตอบกลับกระทู้

ข้อมูลกระทู้

Users Browsing this Thread

ในขณะนี้มี 1 ท่านดูกระทู้อยู่. (0 สมาชิกและ 1 ผู้เยี่ยมชม)

     

กฎการโพสต์ข้อความ

  • ท่าน ไม่สามารถ ตั้งกระทู้ใหม่ได้
  • ท่าน ไม่สามารถ ตอบกระทู้ได้
  • ท่าน ไม่สามารถ แนบไฟล์ได้
  • ท่าน ไม่สามารถ แก้ไขข้อความโพสต์ได้
  • BB code สถานะ เปิด
  • Smilies สถานะ เปิด
  • [IMG] สถานะ เปิด
  • HTML สถานะ ปิด