+ ตอบกลับกระทู้
สรุปผลการค้นหา 1 ถึง 3 จากทั้งหมด 3
  1. #1
    Administrators รูปส่วนตัว Duckload.us
    สมัครเมื่อ
    Dec 2010
    โพสต์
    114,512
    Thanks
    7
    Thanked 120,851 Times in 54,337 Posts

    Angry [จีน]-[Super HQ โจวซิงฉือ เสียงพากย์อินทรีย์] A Chinese Odyssey Part One: Pandora s Box (1994) ไซอิ๋วกี่ เดี๋ยวลิงเดี๋ยวคน ภาค 1 [1080p+DTS 5.1+TrueHD 5.1] [พากย์ไทย 5.1 ซับไทย PGS คมชัด]



    http://www.imdb.com/title/tt0112778/
    Ratings: 7.9/10 from 3,952 use

    เห้งเจียทำความผิดจนถูกเจ้าแม่กวนอิมลงโทษ แต่พระถังซำจั๋งยอมรับผิดแทน ด้วยการยินดีแลกชีวิตของตนกับเห้งเจีย

    500 ปีต่อมา เห้งเจียก็กลับชาติมาเกิดใหม่เป็น จุนเป่า หัวหน้าโจรบนเขาห้าดอย การมาถึงของปีศาจแมงมุมซันสื้อเหนียงและจิงจิง มารกระดูกขาว ทำให้กลุ่มโจรของจุนเป่าปั่นป่วน จุดประสงค์ของทั้งสองคือตามหาพระถึงซำจั๋ง ต่อมาความจริงได้เปิดเผยว่า แท้จริงแล้วจุนเป่าก็คือเห้งเจียกลับชาติมาเกิด จิงจิงผู้เคยมีอดีตรักกับเห้งเจียรู้สึกเสียใจมาก ทั้งสองพาจุนเป่าไปที่ถ้ำสายใย แต่กลับถูกพญากระทิงตามมา จุนเป่าค้นพบกล่องวิเศษจันทรา ที่สามารถทำให้ย้อนเวลาได้ จึงย้อนกลับไปเพื่อช่วยชีวิตจิงจิง และซันสื้อเหนียงแต่กล่องวิเศษกลับพาจุนเป่าย้อนเวลา ไปไกลถึง 500 ปี จนได้พบกับจอมเทพสายใย ผู้ทำให้เขาได้กลับไปเป็นเห้งเจียอีกครั้ง

    Format : Matroska
    Format version : Version 2
    File size : 11.5 GiB
    Duration : 1h 28mn
    Overall bit rate mode : Variable
    Overall bit rate : 18.6 Mbps
    Movie name : A.Chinese.Odyssey.Part.I.Pandoras.Box.1994.1080p.D TS-HD.MA.5.1.BluRay.x264-joythun
    Encoded date : UTC 2016-06-02 16:58:59
    Writing application : mkvmerge v5.0.1 ( Es ist Sommer ) built on Oct 9 2011 11:55:43
    Writing library : libebml v1.2.2 + libmatroska v1.3.0

    Video
    ID : 1
    Format : AVC
    Format/Info : Advanced Video Codec
    Format profile : [email protected]
    Format settings, CABAC : Yes
    Format settings, ReFrames : 4 frames
    Muxing mode : Header stripping
    Codec ID : V_MPEG4/ISO/AVC
    Duration : 1h 28mn
    Nominal bit rate : 14.1 Mbps
    Width : 1 920 pixels
    Height : 1 080 pixels
    Display aspect ratio : 16:9
    Frame rate : 24.000 fps
    Color space : YUV
    Chroma subsampling : 4:2:0
    Bit depth : 8 bits
    Scan type : Progressive
    Bits/(Pixel*Frame) : 0.283
    Writing library : x264 core 136 r2348+704+51 d1baef6 tMod [[email protected]:2:0 X86_64]
    Encoding settings : cabac=1 / ref=4 / deblock=1:-3:-3 / analyse=0x3:0x113 / me=umh / subme=11 / psy=1 / fade_compensate=0.00 / psy_rd=1.00:0.00 / mixed_ref=1 / me_range=32 / chroma_me=1 / trellis=2 / 8x8dct=1 / cqm=0 / deadzone=21,11 / fast_pskip=0 / chroma_qp_offset=-2 / threads=12 / lookahead_threads=2 / sliced_threads=0 / nr=0 / decimate=0 / interlaced=0 / bluray_compat=0 / constrained_intra=0 / fgo=0 / bframes=8 / b_pyramid=2 / b_adapt=2 / b_bias=0 / direct=3 / weightb=1 / open_gop=0 / weightp=2 / keyint=240 / keyint_min=24 / scenecut=40 / intra_refresh=0 / rc_lookahead=240 / rc=2pass / mbtree=1 / bitrate=14079 / ratetol=1.0 / qcomp=0.70 / qpmin=0:0:0 / qpmax=69:69:69 / qpstep=4 / cplxblur=20.0 / qblur=0.5 / ip_ratio=1.10 / aq=4:0.85 / aq-sensitivity=10.00 / aq-factor=1.00:1.00:1.00 / aq2=0 / aq3=0
    Language : Chinese
    Default : Yes
    Forced : No

    Audio #1
    ID : 2
    Format : AC-3
    Format/Info : Audio Coding 3
    Mode extension : CM (complete main)
    Muxing mode : Header stripping
    Codec ID : A_AC3
    Duration : 1h 28mn
    Bit rate mode : Constant
    Bit rate : 384 Kbps
    Channel(s) : 6 channels
    Channel positions : Front: L C R, Side: L R, LFE
    Sampling rate : 48.0 KHz
    Bit depth : 16 bits
    Compression mode : Lossy
    Stream size : 242 MiB (2%)
    Title : THAI Master 5.1 @ 384 Kbps
    Language : Thai
    Default : No
    Forced : Yes

    Audio #2
    ID : 3
    Format : DTS
    Format/Info : Digital Theater Systems
    Format profile : MA / Core
    Muxing mode : Header stripping
    Codec ID : A_DTS
    Duration : 1h 28mn
    Bit rate mode : Variable
    Bit rate : 1 510 Kbps
    Channel(s) : 7 channels / 6 channels
    Channel positions : Front: L C R, Side: L R, Back: C, LFE / Front: L C R, Side: L R, LFE
    Sampling rate : 48.0 KHz
    Bit depth : 16 bits
    Compression mode : Lossless / Lossy
    Stream size : 953 MiB (8%)
    Title : CHI DTS 5.1 @ 1510 Kbps
    Language : Chinese
    Default : No
    Forced : No

    Audio #3
    ID : 4
    Format : TrueHD
    Codec ID : A_TRUEHD
    Duration : 1h 28mn
    Bit rate mode : Variable
    Maximum bit rate : 2 574 Kbps
    Channel(s) : 6 channels
    Channel positions : Front: L C R, Side: L R, LFE
    Sampling rate : 48.0 KHz
    Compression mode : Lossless
    Title : CHI TRUEHD 5.1 @ 2574 Kbps
    Language : Chinese
    Default : No
    Forced : No

    Text #1
    ID : 5
    Format : VobSub
    Muxing mode : zlib
    Codec ID : S_VOBSUB
    Codec ID/Info : The same subtitle format used on DVDs
    Title : THAI 480p DVD Master
    Language : Thai
    Default : No
    Forced : No

    Text #2
    ID : 6
    Format : VobSub
    Muxing mode : zlib
    Codec ID : S_VOBSUB
    Codec ID/Info : The same subtitle format used on DVDs
    Title : THAI 1080p
    Language : Thai
    Default : Yes
    Forced : Yes

    Text #3
    ID : 7
    Format : VobSub
    Muxing mode : zlib
    Codec ID : S_VOBSUB
    Codec ID/Info : The same subtitle format used on DVDs
    Title : THAI 1080p Yellow
    Language : Thai
    Default : No
    Forced : No

    Text #4
    ID : 8
    Format : VobSub
    Muxing mode : zlib
    Codec ID : S_VOBSUB
    Codec ID/Info : The same subtitle format used on DVDs
    Title : THAI 1080p Out
    Language : Thai
    Default : No
    Forced : No

    Text #5
    ID : 9
    Format : PGS
    Muxing mode : zlib
    Codec ID : S_HDMV/PGS
    Codec ID/Info : The same subtitle format used on BDs/HD-DVDs
    Title : THAI PGS 1080p
    Language : Thai
    Default : No
    Forced : No

    Text #6
    ID : 10
    Format : PGS
    Muxing mode : zlib
    Codec ID : S_HDMV/PGS
    Codec ID/Info : The same subtitle format used on BDs/HD-DVDs
    Title : THAI PGS 1080p Out
    Language : Thai
    Default : No
    Forced : No

    Text #7
    ID : 11
    Format : PGS
    Muxing mode : zlib
    Codec ID : S_HDMV/PGS
    Codec ID/Info : The same subtitle format used on BDs/HD-DVDs
    Title : ENG PGS 1080p
    Language : English
    Default : No
    Forced : No







    Quote:
    พากย์ไทย 5.1 ซับไทย PGS คมชัดจาก DVD มาสเตอร์


    http://www.mekafile.com/dl.php?f=1v8f47bcgP0d

    http://cornfile.com/6pr3vkhaiv7y

  2. The Following User Says Thank You to Duckload.us For This Useful Post:

    inutero (03-27-2017)

  3. #2
    Administrators รูปส่วนตัว Duckload.us
    สมัครเมื่อ
    Dec 2010
    โพสต์
    114,512
    Thanks
    7
    Thanked 120,851 Times in 54,337 Posts
    ReUpLoad

  4. #3
    Senior Member
    สมัครเมื่อ
    Dec 2011
    โพสต์
    2,272
    Thanks
    0
    Thanked 0 Times in 0 Posts
    ขอบคุณค่ะ

+ ตอบกลับกระทู้

ข้อมูลกระทู้

Users Browsing this Thread

ในขณะนี้มี 1 ท่านดูกระทู้อยู่. (0 สมาชิกและ 1 ผู้เยี่ยมชม)

     

กฎการโพสต์ข้อความ

  • ท่าน ไม่สามารถ ตั้งกระทู้ใหม่ได้
  • ท่าน ไม่สามารถ ตอบกระทู้ได้
  • ท่าน ไม่สามารถ แนบไฟล์ได้
  • ท่าน ไม่สามารถ แก้ไขข้อความโพสต์ได้
  • BB code สถานะ เปิด
  • Smilies สถานะ เปิด
  • [IMG] สถานะ เปิด
  • HTML สถานะ ปิด