+ ตอบกลับกระทู้
สรุปผลการค้นหา 1 ถึง 2 จากทั้งหมด 2
  1. #1
    Senior Member รูปส่วนตัว meduza
    สมัครเมื่อ
    May 2012
    โพสต์
    3,557
    Thanks
    0
    Thanked 938 Times in 622 Posts

    Arrow [Mini-HD][ใหม่ Master] The Veil เปิดปมมรณะลัทธิสยองโลก ลุ้นระทึกสยอง แรงๆ

    [align=center][color=#6699cc][Mini-HD] The Veil เปิดปมมรณะลัทธิสยองโลก [2016] [1080p] [Master]
    [Sound Thai AC3 5.1/Eng DTS 5.1] [Sub Thai/Eng] [One 2 Up,RBF] [3.62GB]



    [ เรื่องย่อ / Synopsis / ]
    The Veil เรื่องราวของหญิงสาวผู้รอดชีวิตเพียงคนเดียวจากการสั งหารหมู่ของลัทธิคลั่งศาสนา ที่กลับมาเยือนยังสถานที่ที่เคยเกิดเหตุเมื่อ 30 ปีก่อนพร้อมคณะถ่ายทำสารคดีเพื่อมาถ่ายทอดเรื่องราวโ ศกนาฏกรรมในครั้งนั้น สิ่งที่พวกเขาช่วยกันขุดคุ้ยกลับกลายเป็นความสยองที่ ตามมารบกวนเกินกว่าที่พวกเขาจะจินตนาการได้


    [ Screenshot (แคปจากตัวไฟล์) ]





    [ Mediainfo ]

    Format : Matroska
    Format version : Version 2
    File size : 3.62 GiB
    Duration : 1h 33mn
    Overall bit rate : 5 536 Kbps
    Movie name : {MINI} The.Veil.2016.1080p.DTS.HQ..BrRip.x264-joythun
    Encoded date : UTC 2016-07-25 08:11:25
    Writing application : mkvmerge v5.0.1 ( Es ist Sommer ) built on Oct 9 2011 11:55:43
    Writing library : libebml v1.2.2 + libmatroska v1.3.0

    Video
    ID : 1
    Format : AVC
    Format/Info : Advanced Video Codec
    Format profile : [email protected]
    Format settings, CABAC : Yes
    Format settings, ReFrames : 5 frames
    Codec ID : V_MPEG4/ISO/AVC
    Duration : 1h 33mn
    Bit rate : 4 285 Kbps
    Width : 1 920 pixels
    Height : 800 pixels
    Display aspect ratio : 2.40:1
    Frame rate : 23.976 fps
    Color space : YUV
    Chroma subsampling : 4:2:0
    Bit depth : 8 bits
    Scan type : Progressive
    Bits/(Pixel*Frame) : 0.116
    Stream size : 2.80 GiB (77%)
    Title : {MINI} The.Veil.2016.1080p.DTS.HQ..BrRip.x264-joythun
    Writing library : x264 core 144 r2525 40bb568
    Encoding settings : cabac=1 / ref=5 / deblock=1:1:1 / analyse=0x3:0x113 / me=umh / subme=10 / psy=1 / psy_rd=1.00:0.00 / mixed_ref=1 / me_range=36 / chroma_me=1 / trellis=2 / 8x8dct=1 / cqm=0 / deadzone=21,11 / fast_pskip=1 / chroma_qp_offset=-4 / threads=6 / lookahead_threads=1 / sliced_threads=0 / nr=0 / decimate=1 / interlaced=0 / bluray_compat=0 / constrained_intra=0 / bframes=5 / b_pyramid=2 / b_adapt=1 / b_bias=0 / direct=3 / weightb=1 / open_gop=0 / weightp=2 / keyint=250 / keyint_min=23 / scenecut=40 / intra_refresh=0 / rc_lookahead=40 / rc=2pass / mbtree=1 / bitrate=4285 / ratetol=1.0 / qcomp=0.60 / qpmin=0 / qpmax=69 / qpstep=4 / cplxblur=20.0 / qblur=0.5 / vbv_maxrate=14000 / vbv_bufsize=14000 / nal_hrd=none / filler=0 / ip_ratio=1.40 / aq=1:1.00
    Default : Yes
    Forced : No

    Audio #1
    ID : 2
    Format : AC-3
    Format/Info : Audio Coding 3
    Mode extension : CM (complete main)
    Codec ID : A_AC3
    Duration : 1h 33mn
    Bit rate mode : Constant
    Bit rate : 384 Kbps
    Channel(s) : 6 channels
    Channel positions : Front: L C R, Side: L R, LFE
    Sampling rate : 48.0 KHz
    Bit depth : 16 bits
    Compression mode : Lossy
    Stream size : 257 MiB (7%)
    Title : THAI Master 5.1 @ 384 Kbps
    Language : Thai
    Default : Yes
    Forced : Yes

    Audio #2
    ID : 3
    Format : DTS
    Format/Info : Digital Theater Systems
    Codec ID : A_DTS
    Duration : 1h 33mn
    Bit rate mode : Constant
    Bit rate : 755 Kbps
    Channel(s) : 6 channels
    Channel positions : Front: L C R, Side: L R, LFE
    Sampling rate : 48.0 KHz
    Bit depth : 24 bits
    Compression mode : Lossy
    Stream size : 505 MiB (14%)
    Title : ENG DTS 5.1 @ 755 Kbps
    Language : English
    Default : No
    Forced : No

    Text #1
    ID : 4
    Format : VobSub
    Codec ID : S_VOBSUB
    Codec ID/Info : The same subtitle format used on DVDs
    Title : THAI 480p DVD Master
    Language : Thai
    Default : No
    Forced : No

    Text #2
    ID : 5
    Format : VobSub
    Codec ID : S_VOBSUB
    Codec ID/Info : The same subtitle format used on DVDs
    Title : THAI 1080p
    Language : Thai
    Default : Yes
    Forced : Yes

    Text #3
    ID : 6
    Format : VobSub
    Codec ID : S_VOBSUB
    Codec ID/Info : The same subtitle format used on DVDs
    Title : THAI 1080p Yellow
    Language : Thai
    Default : No
    Forced : No

    Text #4
    ID : 7
    Format : VobSub
    Codec ID : S_VOBSUB
    Codec ID/Info : The same subtitle format used on DVDs
    Title : THAI 1080p Out
    Language : Thai
    Default : No
    Forced : No

    Text #5
    ID : 8
    Format : PGS
    Codec ID : S_HDMV/PGS
    Codec ID/Info : The same subtitle format used on BDs/HD-DVDs
    Title : THAI PGS 1080p
    Language : Thai
    Default : No
    Forced : No

    Text #6
    ID : 9
    Format : PGS
    Codec ID : S_HDMV/PGS
    Codec ID/Info : The same subtitle format used on BDs/HD-DVDs
    Title : THAI PGS 1080p Out
    Language : Thai
    Default : No
    Forced : No

    Text #7
    ID : 10
    Format : PGS
    Codec ID : S_HDMV/PGS
    Codec ID/Info : The same subtitle format used on BDs/HD-DVDs
    Title : ENG PGS 1080p
    Language : English
    Default : No
    Forced : No

    Menu
    00:00:00.000 : en:Chapter 01
    00:06:26.886 : en:Chapter 02
    00:15:02.401 : en:Chapter 03
    00:21:43.927 : en:Chapter 04
    00:29:16.254 : en:Chapter 05
    00:35:21.077 : en:Chapter 06
    00:44:29.416 : en:Chapter 07
    00:50:43.040 : en:Chapter 08
    01:00:10.815 : en:Chapter 09
    01:06:31.779 : en:Chapter 10
    01:12:19.835 : en:Chapter 11
    01:20:54.266 : en:Chapter 12
    01:33:30.646 : en:Chapter 13



    [ Trailer / ตัวอย่างหนัง / ]

    https://www.youtube.com/watch?v=rOUHGzoP0fw




    [ 1 GB / PART / .MKV ] [ 3.62 GB ] [ Master 1080p ]

    [ PART 1 ]
    [ PART 2 ]
    [ PART 3 ]
    [ PART 4 ]





    ทุกไฟล์ใส่ Recovery Record 5% สามารถซ่อมแซมได้ครับ



    ขั้นตอนการโหลดหนัง One 2 Up

    1.เมื่อคลิกโหลด IDM จะเด้งมาสังเกตตรงลูกศร ชื่อไฟล์มันจะมั่วๆ ให้เปลี่ยนชื่อไฟล์ทันที ง่ายๆ 01 02 ฯลฯ



    หรือ

    1.1โหลดมาให้ครบทุกไฟล์แล้วดับเบิ้ลคลิ๊กที่ไฟล์เพื่ อดู Number ไฟล์แล้วเปลี่ยนตามเลยครับ



    2.จากนั้นก็รวมไฟล์ตามปกติเลยครับ




    ความสุขง่ายๆ แค่ปลายนิ้วคลิ๊ก

    เสียงขอบคุณของท่าน นั่นคือกำลังใจครับ


    [/align]

  2. #2
    Senior Member
    สมัครเมื่อ
    Jul 2013
    โพสต์
    2,790
    Thanks
    0
    Thanked 0 Times in 0 Posts
    ขอบคุรครับ

+ ตอบกลับกระทู้

ข้อมูลกระทู้

Users Browsing this Thread

ในขณะนี้มี 1 ท่านดูกระทู้อยู่. (0 สมาชิกและ 1 ผู้เยี่ยมชม)

     

กฎการโพสต์ข้อความ

  • ท่าน ไม่สามารถ ตั้งกระทู้ใหม่ได้
  • ท่าน ไม่สามารถ ตอบกระทู้ได้
  • ท่าน ไม่สามารถ แนบไฟล์ได้
  • ท่าน ไม่สามารถ แก้ไขข้อความโพสต์ได้
  • BB code สถานะ เปิด
  • Smilies สถานะ เปิด
  • [IMG] สถานะ เปิด
  • HTML สถานะ ปิด