+ ตอบกลับกระทู้
สรุปผลการค้นหา 1 ถึง 2 จากทั้งหมด 2
  1. #1
    Administrators รูปส่วนตัว Duckload.us
    สมัครเมื่อ
    Dec 2010
    โพสต์
    111,417
    Thanks
    7
    Thanked 116,834 Times in 53,179 Posts

    Exclamation [ฝรั่ง]-[Mini-HD] Bad Asses 2-3 (2014-2015) เก๋าโหดโคตรระห่ำ ภาค 2-3 [Master] [720p1080p] [เสียงไทยมาสเตอร์ 5.1 + อังกฤษ 5.1] [บรรยายไทย + อังกฤษ] [.MKV]

    Bad Asses 2 (2014) / เก๋าโหดโคตรระห่ำ|4.73GB
    เรื่องย่อ
    เดวิด วอซเนียค (วินซ์ วอห์น) มีชีวิตที่เรียบง่ายเสมอมา เขาเป็นพนักงานขับรถส่งของในบริษัทเนื้อของครอบครัวเ ขา และเขาก็ดูเหมือนจะพึงพอใจกับการใช้ชีวิตอยู่อย่างเร ียบง่ายธรรมดาแบบนี้ แม้ว่าเดวิดจะเป็นคนจิตใจงาม และเป็นที่ชื่นชอบของทุกคนที่เขาได้โอภาปราศรัยด้วย แต่เขาก็ยังทำตัวเป็นเด็กๆ ขาดสมาธิ มีหนี้สินล้นพ้นตัว และต้องการคำชี้แนะหนทางในชีวิตอย่างยิ่ง แต่เมื่อเขาพบว่าเขาเป็นพ่อของเด็ก 533 คน ซึ่ง 142 คนกำลังฟ้องร้องเพื่อที่จะรู้ตัวตนของเขา ทุกอย่างก็เปลี่ยนไป และเดวิดก็ตัดสินใจว่าเขาอยากจะทำในสิ่งที่ถูกต้องซั กครั้ง และรับผิดชอบต่อการกระทำของตัวเอง
    ด้วยความกระตือรือร้นที่จะเรียนรู้เกี่ยวกับลูกๆ ที่เขาเพิ่งรู้ว่ามีตัวตน เขาก็สืบหาร่องรอยของพวกเขาและเริ่มดูแลพวกเขา และเขาก็เริ่มรู้สึกผูกพันกับเด็กๆ พวกนี้อย่างคาดไม่ถึง นี่เป็นครั้งแรกในชีวิตที่เขาเข้าใจว่า มันรู้สึกดีแค่ไหนที่นึกถึงคนอื่นก่อนตัวเอง เดวิดอยากจะเห็นพวกเขาไปได้สวยในชีวิต และเขาก็ทำตัวเหมือนเทวดาคุ้มครอง คอยให้คำแนะนำยาม หรือกำลังใจยามพวกเขาต้องการ หรือเป็นบ่าให้ซบยามพวกเขาร้องไห้ เขาเริ่มซาบซึ้งถึงสิ่งมีค่าชีวิตที่เขาขาดหายไป ในขณะเดียวกัน เอ็มมา (โคบี้ สมัลเดอร์ส) แฟนสาวของเดวิด ได้แจ้งข่าวเรื่องการตั้งท้องของเธอให้เขารู้ แต่ด้วยความที่เธอก็รู้จักเดวิดดี เธอก็เลยตั้งความหวังไว้ต่ำเตี้ยติดดิน อย่างไรก็ดี บททดสอบที่เดวิดได้พบเจอเมื่อเร็วๆ นี้ก็ได้ช่วยให้เขาเติบโตขึ้นอย่างที่เขาไม่เคยคิดมา ก่อนว่าจะเป็นไปได้ และท้ายที่สุด เขาก็เข้าใจว่าเขามีเป้าหมายชีวิตแล้ว และครั้งนี้ เขาจะไม่ทำให้ใครๆ ต้องผิดหวัง โดยเฉพาะลูกๆ ของเขา

    General
    Unique ID : 199481598608673716257314397227728106741 (0x9612C2274103EAF3A518282958FDF4F5)
    Complete name : D:หนัง7.Bad Ass 2-3 [2014-2015]Bad Asses 2 (2014) เก๋าโหดโคตรระห่ำ 2Bad.Ass.2.2014.1080p.WEB-DL.x264.AC3-nusom.mkv
    Format : Matroska
    Format version : Version 4 / Version 2
    File size : 4.73 GiB
    Duration : 1h 31mn
    Overall bit rate : 7 424 Kbps
    Encoded date : UTC 2010-02-22 21:41:31
    Writing application : mkvmerge v5.9.0 ( On The Loose ) built on Dec 9 2012 15:37:01
    Writing library : libebml v1.3.0 + libmatroska v1.4.0

    Video
    ID : 1
    Format : AVC
    Format/Info : Advanced Video Codec
    Format profile : [email protected]
    Format settings, CABAC : Yes
    Format settings, ReFrames : 4 frames
    Codec ID : V_MPEG4/ISO/AVC
    Duration : 1h 31mn
    Bit rate : 6 700 Kbps
    Width : 1 920 pixels
    Height : 1 032 pixels
    Display aspect ratio : 1.85:1
    Frame rate mode : Constant
    Frame rate : 23.976 fps
    Color space : YUV
    Chroma subsampling : 4:2:0
    Bit depth : 8 bits
    Scan type : Progressive
    Bits/(Pixel*Frame) : 0.141
    Stream size : 4.10 GiB (87%)
    Writing library : x264 core 130 r2273 b3065e6
    Encoding settings : cabac=1 / ref=1 / deblock=1:0:0 / analyse=0x3:0x113 / me=hex / subme=2 / psy=1 / psy_rd=1.00:0.00 / mixed_ref=0 / me_range=16 / chroma_me=1 / trellis=0 / 8x8dct=1 / cqm=0 / deadzone=21,11 / fast_pskip=1 / chroma_qp_offset=0 / threads=12 / lookahead_threads=4 / sliced_threads=0 / nr=0 / decimate=1 / interlaced=0 / bluray_compat=0 / constrained_intra=0 / bframes=3 / b_pyramid=2 / b_adapt=1 / b_bias=0 / direct=1 / weightb=1 / open_gop=0 / weightp=1 / keyint=240 / keyint_min=24 / scenecut=40 / intra_refresh=0 / rc_lookahead=10 / rc=abr / mbtree=1 / bitrate=6700 / ratetol=1.0 / qcomp=0.60 / qpmin=0 / qpmax=69 / qpstep=4 / vbv_maxrate=25000 / vbv_bufsize=31250 / nal_hrd=none / ip_ratio=1.40 / aq=1:1.00
    Language : English
    Default : Yes
    Forced : No
    Color primaries : BT.709
    Transfer characteristics : BT.709
    Matrix coefficients : BT.709

    Audio #1
    ID : 2
    Format : AC-3
    Format/Info : Audio Coding 3
    Mode extension : CM (complete main)
    Format settings, Endianness : Big
    Codec ID : A_AC3
    Duration : 1h 31mn
    Bit rate mode : Constant
    Bit rate : 448 Kbps
    Channel(s) : 6 channels
    Channel positions : Front: L C R, Side: L R, LFE
    Sampling rate : 48.0 KHz
    Bit depth : 16 bits
    Compression mode : Lossy
    Delay relative to video : 15ms
    Stream size : 292 MiB (6%)
    Title : Eng
    Language : English
    Default : Yes
    Forced : No

    Audio #2
    ID : 3
    Format : AC-3
    Format/Info : Audio Coding 3
    Mode extension : CM (complete main)
    Format settings, Endianness : Big
    Codec ID : A_AC3
    Duration : 1h 31mn
    Bit rate mode : Constant
    Bit rate : 384 Kbps
    Channel(s) : 6 channels
    Channel positions : Front: L C R, Side: L R, LFE
    Sampling rate : 48.0 KHz
    Bit depth : 16 bits
    Compression mode : Lossy
    Stream size : 250 MiB (5%)
    Title : Thai DVD Master
    Language : Thai
    Default : No
    Forced : No

    Text #1
    ID : 4
    Format : VobSub
    Codec ID : S_VOBSUB
    Codec ID/Info : The same subtitle format used on DVDs
    Title : A480
    Language : Thai
    Default : Yes
    Forced : No

    Text #2
    ID : 5
    Format : VobSub
    Codec ID : S_VOBSUB
    Codec ID/Info : The same subtitle format used on DVDs
    Title : T480
    Language : Thai
    Default : No
    Forced : No

    Text #3
    ID : 6
    Format : UTF-8
    Codec ID : S_TEXT/UTF8
    Codec ID/Info : UTF-8 Plain Text
    Title : Text
    Language : English
    Default : No
    Forced : No

    Text #4
    ID : 7
    Format : VobSub
    Codec ID : S_VOBSUB
    Codec ID/Info : The same subtitle format used on DVDs
    Title : A1080
    Language : Thai
    Default : No
    Forced : No

    Text #5
    ID : 8
    Format : VobSub
    Codec ID : S_VOBSUB
    Codec ID/Info : The same subtitle format used on DVDs
    Title : T1080
    Language : Thai
    Default : No
    Forced : No

    Text #6
    ID : 9
    Format : VobSub
    Codec ID : S_VOBSUB
    Codec ID/Info : The same subtitle format used on DVDs
    Title : Tahoma
    Language : Thai
    Default : No
    Forced : No

    Text #7
    ID : 10
    Format : PGS
    Codec ID : S_HDMV/PGS
    Codec ID/Info : The same subtitle format used on BDs/HD-DVDs
    Title : PGS/Thai
    Language : Thai
    Default : No
    Forced : No

    Text #8
    ID : 11
    Format : PGS
    Codec ID : S_HDMV/PGS
    Codec ID/Info : The same subtitle format used on BDs/HD-DVDs
    Title : PGS/Thai
    Language : Thai
    Default : No
    Forced : No

    Text #9
    ID : 12
    Format : PGS
    Codec ID : S_HDMV/PGS
    Codec ID/Info : The same subtitle format used on BDs/HD-DVDs
    Title : PGS/Thai
    Language : Thai
    Default : No
    Forced : No
    แดน นี่ เทรโฮ (Machete) และ แดนนี่ โกลเวอร์ (Lethal Weapon) รวมพลังเก๋าโคตรในภาคต่อของหนังแอ็คชั่นสุดมันส์ เวลานี้ ทหารผ่านศึกเวียดนาม แฟรงค์ เวก้า (แดนนี่ เทรโฮ) และเพื่อนเก่า เบอร์นี่ (แดนนี่ โกลเวอร์) ต้องมุ่งหน้าไปหลุยเซียน่าเพื่อตามหาเพื่อนของพวกเขา คนหนึ่งที่ถูกลักพาตัว ไป

    General
    Unique ID : 220153736123760689701897162714204132744 (0xA5A011390FE1FBDDB86A73252F50D588)
    Complete name : D:หนัง7.Bad Ass 2-3 [2014-2015]Bad Ass 3 Bad Asses on the Bayou (2015) เก๋าโหดโคตรระห่ำ 3Bad.Asses.3.on.the.Bayou.2015.720p.WEBDL.AC3.x264 .MASTER-siambit.tv.mkv
    Format : Matroska
    Format version : Version 4 / Version 2
    File size : 2.85 GiB
    Duration : 1h 25mn
    Overall bit rate : 4 798 Kbps
    Movie name : www.siambit.tv.com
    Encoded date : UTC 2015-05-07 01:12:28
    Writing application : mkvmerge v7.8.0 ( River Man ) 32bit built on Mar 27 2015 16:18:02
    Writing library : libebml v1.3.1 + libmatroska v1.4.2
    Attachment : Yes / Yes / Yes / Yes

    Video
    ID : 1
    Format : AVC
    Format/Info : Advanced Video Codec
    Format profile : [email protected]
    Format settings, CABAC : No
    Format settings, ReFrames : 2 frames
    Codec ID : V_MPEG4/ISO/AVC
    Duration : 1h 25mn
    Bit rate : 3 934 Kbps
    Width : 1 280 pixels
    Height : 690 pixels
    Display aspect ratio : 1.85:1
    Frame rate mode : Constant
    Frame rate : 23.976 fps
    Color space : YUV
    Chroma subsampling : 4:2:0
    Bit depth : 8 bits
    Scan type : Progressive
    Bits/(Pixel*Frame) : 0.186
    Stream size : 2.34 GiB (82%)
    Title : Bad.Asses.3.on.the.Bayou.2015.720p.WEBDL.AC3.x264. MASTER-siambit.tv
    Language : English
    Default : Yes
    Forced : No
    Color primaries : BT.709
    Transfer characteristics : BT.709
    Matrix coefficients : BT.709

    Audio #1
    ID : 2
    Format : AC-3
    Format/Info : Audio Coding 3
    Mode extension : CM (complete main)
    Format settings, Endianness : Big
    Codec ID : A_AC3
    Duration : 1h 25mn
    Bit rate mode : Constant
    Bit rate : 384 Kbps
    Channel(s) : 6 channels
    Channel positions : Front: L C R, Side: L R, LFE
    Sampling rate : 48.0 KHz
    Bit depth : 16 bits
    Compression mode : Lossy
    Stream size : 234 MiB (8%)
    Title : AC3 DVD MASTER
    Language : Thai
    Default : Yes
    Forced : Yes

    Audio #2
    ID : 3
    Format : AC-3
    Format/Info : Audio Coding 3
    Mode extension : CM (complete main)
    Format settings, Endianness : Big
    Codec ID : A_AC3
    Duration : 1h 25mn
    Bit rate mode : Constant
    Bit rate : 384 Kbps
    Channel(s) : 6 channels
    Channel positions : Front: L C R, Side: L R, LFE
    Sampling rate : 48.0 KHz
    Bit depth : 16 bits
    Compression mode : Lossy
    Stream size : 234 MiB (8%)
    Title : AC3
    Language : English
    Default : No
    Forced : No

    Text #1
    ID : 4
    Format : VobSub
    Codec ID : S_VOBSUB
    Codec ID/Info : The same subtitle format used on DVDs
    Title : 1080P TSA
    Language : Thai
    Default : Yes
    Forced : Yes

    Text #2
    ID : 5
    Format : VobSub
    Codec ID : S_VOBSUB
    Codec ID/Info : The same subtitle format used on DVDs
    Title : 1080P TSA YELLOW
    Language : Thai
    Default : No
    Forced : No

    Text #3
    ID : 6
    Format : VobSub
    Codec ID : S_VOBSUB
    Codec ID/Info : The same subtitle format used on DVDs
    Title : 1080P AS
    Language : Thai
    Default : No
    Forced : No

    Text #4
    ID : 7
    Format : VobSub
    Codec ID : S_VOBSUB
    Codec ID/Info : The same subtitle format used on DVDs
    Title : DVD MASTER
    Language : Thai
    Default : No
    Forced : No

    Text #5
    ID : 8
    Format : PGS
    Codec ID : S_HDMV/PGS
    Codec ID/Info : The same subtitle format used on BDs/HD-DVDs
    Title : TSA
    Language : Thai
    Default : No
    Forced : No

    Text #6
    ID : 9
    Format : PGS
    Codec ID : S_HDMV/PGS
    Codec ID/Info : The same subtitle format used on BDs/HD-DVDs
    Title : AS
    Language : Thai
    Default : No
    Forced : No



    2
    http://www.mekafile.com/dl.php?f=kce1bdbflbB8
    3
    http://www.mekafile.com/dl.php?f=a53691bflbFx

  2. #2
    Member รูปส่วนตัว ksurachai
    สมัครเมื่อ
    Nov 2019
    โพสต์
    78
    Thanks
    14
    Thanked 0 Times in 0 Posts
    ภาค 1 มีมั๊ยครับ

+ ตอบกลับกระทู้

ข้อมูลกระทู้

Users Browsing this Thread

ในขณะนี้มี 1 ท่านดูกระทู้อยู่. (0 สมาชิกและ 1 ผู้เยี่ยมชม)

     

กฎการโพสต์ข้อความ

  • ท่าน ไม่สามารถ ตั้งกระทู้ใหม่ได้
  • ท่าน ไม่สามารถ ตอบกระทู้ได้
  • ท่าน ไม่สามารถ แนบไฟล์ได้
  • ท่าน ไม่สามารถ แก้ไขข้อความโพสต์ได้
  • BB code สถานะ เปิด
  • Smilies สถานะ เปิด
  • [IMG] สถานะ เปิด
  • HTML สถานะ ปิด