+ ตอบกลับกระทู้
สรุปผลการค้นหา 1 ถึง 3 จากทั้งหมด 3
  1. #1
    Administrators รูปส่วนตัว Duckload.us
    สมัครเมื่อ
    Dec 2010
    โพสต์
    125,234
    Thanks
    7
    Thanked 130,235 Times in 57,734 Posts

    Exclamation [ฝรั่ง]-[* หนังสงครามหายาก มีเสียงไทย *] Where Eagles Dare (1968) อินทรีผยอง [1080p พากย์ไทย 2.0 + อังกฤษ DTS 5.1] [พากย์ไทย + ซับไทย PGS คมชัด]



    http://www.imdb.com/title/tt0065207/

    ภารกิจชี้ชัด บุกเข้าไป...ชิงนักโทษ...แล้วหนีออกมา อย่างมีชีวิตรอด! ทว่าภารกิจของหน่วยคอมมานโด ในการบุกช่วยเหลือนายพลสหรัฐฯผู้หนึ่ง จากคุกอัลไพน์ที่ถูกคุ้มกันอย่างแน่นหนา ได้มีคำสั่งห้ามไว้ใจไว้ต่อสิ่งใดๆ ก็ตาม แต่นั่นคงต้องรวมถึงการไว้วางใจต่อคำสั่งครั้งนี้ด้ว ย!
    คลิ้นท์ อีสต์วู้ด และ ริชาร์ด เบอร์ตัน เฉือนบทกันอย่างเข้มข้น ในภาพยนตร์สงครามสุด
    คลาสสิค ที่อัดแน่นด้วยความตื่นเต้น และบทที่พลิกผันเกินคาดเดา จากฝีมือของมือเขียนบทระดับพระกาฬอย่าง อลิสแตร์ แม็คลีน (The Gun of navarone, Ice Station Zebra) กำกับโดย ไบรอัน จี. ฮัตตัน (Kellys Heroes) ริชาร์ด เบอร์ตัน ซึ่งเรารู้จักกันดีกับบทชีวิตที่เขาถนัด สำแดงฝีมือในเชิงบู๊ให้คุณประจักษ์ ด้วยการแสดงที่ทรงพลัง และสำหรับ คลิ้นท์ อีสต์วู้ด ครั้งนี้คือบทถนัดที่ช่วยตอกย้ำความเป็นดาราแอ๊คชั่น ระดับสุดยอดอีกหน นี่คือภาพยนตร์ที่เปิดตัวด้วยรายได้ทะยานสู่อันดับหน ึ่งบ๊อกซ์อ็อฟฟิศในยุคนั้น และทำให้อีสต์วู้ดกลายเป็นดาราตุ๊กตาทอง ผู้ทำให้สตูดิโอผู้สร้างกลายเป็นสตูดิโอที่ทำเงินเป็ นอันดับหนึ่งของปี!

    Format : Matroska
    Format version : Version 2
    File size : 13.4 GiB
    Duration : 2h 35mn
    Overall bit rate : 12.3 Mbps
    Movie name : Where.Eagles.Dare.1968.1080p.DTS.BluRay.x264-joythun
    Encoded date : UTC 2016-10-11 05:43:05
    Writing application : mkvmerge v5.0.1 ( Es ist Sommer ) built on Oct 9 2011 11:55:43
    Writing library : libebml v1.2.2 + libmatroska v1.3.0

    Video
    ID : 1
    Format : AVC
    Format/Info : Advanced Video Codec
    Format profile : [email protected]/* */*คำต้องห้าม*
    Format settings, CABAC : Yes
    Format settings, ReFrames : 5 frames
    Muxing mode : Header stripping
    Codec ID : V_MPEG4/ISO/AVC
    Duration : 2h 35mn
    Bit rate : 10.5 Mbps
    Width : 1 920 pixels
    Height : 800 pixels
    Display aspect ratio : 2.40:1
    Frame rate : 23.976 fps
    Color space : YUV
    Chroma subsampling : 4:2:0
    Bit depth : 8 bits
    Scan type : Progressive
    Bits/(Pixel*Frame) : 0.286
    Stream size : 11.2 GiB (84%)
    Title : Where.Eagles.Dare.1968.1080p.DTS.BluRay.x264-joythun
    Writing library : x264 core 88 r1471 1144615
    Encoding settings : cabac=1 / ref=5 / deblock=1:-3:-3 / analyse=0x3:0x113 / me=umh / subme=9 / psy=1 / psy_rd=1.05:0.10 / mixed_ref=1 / me_range=32 / chroma_me=1 / trellis=2 / 8x8dct=1 / cqm=2 / deadzone=21,11 / fast_pskip=0 / chroma_qp_offset=-2 / threads=12 / sliced_threads=0 / nr=0 / decimate=1 / mbaff=0 / constrained_intra=0 / bframes=3 / b_pyramid=2 / b_adapt=2 / b_bias=0 / direct=3 / wpredb=1 / wpredp=2 / keyint=250 / keyint_min=25 / scenecut=40 / intra_refresh=0 / rc_lookahead=50 / rc=2pass / mbtree=1 / bitrate=10535 / ratetol=2.0 / qcomp=0.70 / qpmin=10 / qpmax=51 / qpstep=4 / cplxblur=20.0 / qblur=0.5 / vbv_maxrate=50000 / vbv_bufsize=50000 / ip_ratio=1.40 / aq=1:1.00
    Language : English
    Default : Yes
    Forced : Yes

    Audio #1
    ID : 2
    Format : AC-3
    Format/Info : Audio Coding 3
    Mode extension : CM (complete main)
    Codec ID : A_AC3
    Duration : 2h 35mn
    Bit rate mode : Constant
    Bit rate : 224 Kbps
    Channel(s) : 2 channels
    Channel positions : Front: L R
    Sampling rate : 48.0 KHz
    Bit depth : 16 bits
    Compression mode : Lossy
    Delay relative to video : 1s 250ms
    Stream size : 249 MiB (2%)
    Title : THAI VCD 2.0 @ 224 Kbps
    Language : Thai
    Default : Yes
    Forced : Yes

    Audio #2
    ID : 3
    Format : DTS
    Format/Info : Digital Theater Systems
    Codec ID : A_DTS
    Duration : 2h 35mn
    Bit rate mode : Constant
    Bit rate : 1 510 Kbps
    Channel(s) : 6 channels
    Channel positions : Front: L C R, Side: L R, LFE
    Sampling rate : 48.0 KHz
    Bit depth : 24 bits
    Compression mode : Lossy
    Stream size : 1.64 GiB (12%)
    Title : ENG DTS 5.1 @ 1510 Kbps
    Language : English
    Default : No
    Forced : No

    Text #1
    ID : 4
    Format : VobSub
    Codec ID : S_VOBSUB
    Codec ID/Info : The same subtitle format used on DVDs
    Title : THAI 480p DVD Master
    Language : Thai
    Default : No
    Forced : No

    Text #2
    ID : 5
    Format : VobSub
    Codec ID : S_VOBSUB
    Codec ID/Info : The same subtitle format used on DVDs
    Title : THAI 1080p
    Language : Thai
    Default : Yes
    Forced : Yes

    Text #3
    ID : 6
    Format : VobSub
    Codec ID : S_VOBSUB
    Codec ID/Info : The same subtitle format used on DVDs
    Title : THAI 1080p Yellow
    Language : Thai
    Default : No
    Forced : No

    Text #4
    ID : 7
    Format : VobSub
    Codec ID : S_VOBSUB
    Codec ID/Info : The same subtitle format used on DVDs
    Title : THAI 1080p Out
    Language : Thai
    Default : No
    Forced : No

    Text #5
    ID : 8
    Format : PGS
    Codec ID : S_HDMV/PGS
    Codec ID/Info : The same subtitle format used on BDs/HD-DVDs
    Title : THAI PGS 1080p
    Language : Thai
    Default : No
    Forced : No

    Text #6
    ID : 9
    Format : PGS
    Codec ID : S_HDMV/PGS
    Codec ID/Info : The same subtitle format used on BDs/HD-DVDs
    Title : THAI PGS 1080p Out
    Language : Thai
    Default : No
    Forced : No

    Text #7
    ID : 10
    Format : UTF-8
    Codec ID : S_TEXT/UTF8
    Codec ID/Info : UTF-8 Plain Text
    Title : ENG SRT
    Language : English
    Default : No
    Forced : No










    Quote:
    พากย์ไทย 2.0 จาก VCD มาสเตอร์

    ซับไทย PGS คมชัดจาก DVD มาสเตอร์




    http://www.filecondo.com/dl.php?f=o03645bhY4ic

  2. #2
    Senior Member
    สมัครเมื่อ
    Jul 2012
    โพสต์
    7,397
    Thanks
    0
    Thanked 0 Times in 0 Posts
    ขอบคุณมากจ้า

  3. #3
    Senior Member
    สมัครเมื่อ
    May 2011
    โพสต์
    117
    Thanks
    44
    Thanked 0 Times in 0 Posts
    ขอรีอัพเรื่องนี้/เวอร์ชั่นนี้ใหม่ครับ

+ ตอบกลับกระทู้

ข้อมูลกระทู้

Users Browsing this Thread

ในขณะนี้มี 1 ท่านดูกระทู้อยู่. (0 สมาชิกและ 1 ผู้เยี่ยมชม)

     

กฎการโพสต์ข้อความ

  • ท่าน ไม่สามารถ ตั้งกระทู้ใหม่ได้
  • ท่าน ไม่สามารถ ตอบกระทู้ได้
  • ท่าน ไม่สามารถ แนบไฟล์ได้
  • ท่าน ไม่สามารถ แก้ไขข้อความโพสต์ได้
  • BB code สถานะ เปิด
  • Smilies สถานะ เปิด
  • [IMG] สถานะ เปิด
  • HTML สถานะ ปิด