+ ตอบกลับกระทู้
สรุปผลการค้นหา 1 ถึง 4 จากทั้งหมด 4
  1. #1
    Administrators รูปส่วนตัว Duckload.us
    สมัครเมื่อ
    Dec 2010
    โพสต์
    150,746
    Thanks
    7
    Thanked 157,985 Times in 68,981 Posts

    Exclamation [เกาหลี]-Yobi, The Five Tailed Fox โยบิ เทพธิดาจิ้งจอก 5 หาง 2007[ BDRIP 1700x1280p เสียงไทย+เกาหลี/ ซับไทย+อิง modify]-MiniBD.H.264.1080p. [rip from Master]-[พากย์ไทย บรรยายไทย]



    เรื่องย่อ
    โยบิ (ซอนเยจิน) วิญญาณของจิ้งจอกห้าหางผู้อาศัยอยู่กับกลุ่มของมนุษย ์ต่างดาว เพราะไม่อยากยุ่งเกี่ยวกับมนุษย์ผู้แสนโง่เขลา และทันทีที่มนุษย์ต่างดาวซ่อมยานอวกาศเสร็จ เธอจะได้ไปจากดาวดวงนี้

    แต่น่าเสียดายนักที่การเดินทางออกนอกโลกต้องช้าออกไป เนื่องจากอุบัติเหตุที่มาเกี่ยวข้องกับมนุษย์ต่างดาว ตนหนึ่ง และยิ่งแย่ไปกว่านั้นเมื่อมนุษย์ต่างดาวตนดังกล่าวหน ีไป เพราะอารมณ์ที่พลุ่งพล่าน แต่แล้วกลับถูกจับไปที่โรงเรียน โยบิจึงเปลี่ยนร่างเป็นมนุษย์และพยายามช่วยมนุษย์ต่า งดาวจากสถานการณ์ยุ่งยากนี้ให้ได้



    General
    Yobi, The Five Tailed Fox โยบิ เทพธิดาจิ้งจอก 5 หางYobi, The Five Tailed Fox.mkv
    Format : Matroska
    Format version : Version 4 / Version 2
    File size : 1.24 GiB
    Duration : 1h 25mn
    Overall bit rate : 2 087 Kbps
    Encoded date : UTC 2016-11-25 16:03:12
    Writing application : mkvmerge v9.4.2 ( So High ) 64bit
    Writing library : libebml v1.3.4 + libmatroska v1.4.5

    Video
    ID : 1
    Format : AVC
    Format/Info : Advanced Video Codec
    Format profile : High@L4
    Format settings, CABAC : Yes
    Format settings, ReFrames : 6 frames
    Codec ID : V_MPEG4/ISO/AVC
    Duration : 1h 25mn
    Bit rate : 1 700 Kbps
    Width : 1 280 pixels
    Height : 720 pixels
    Display aspect ratio : 16:9
    Frame rate mode : Constant
    Frame rate : 23.976 (24000/1001) fps
    Color space : YUV
    Chroma subsampling : 4:2:0
    Bit depth : 8 bits
    Scan type : Progressive
    Bits/(Pixel*Frame) : 0.077
    Stream size : 1.01 GiB (81%)
    Title : Yobi
    Writing library : x264 core 98 r1649 c54c47d
    Encoding settings : cabac=1 / ref=6 / deblock=1:1:1 / analyse=0x3:0x113 / me=hex / subme=7 / psy=1 / psy_rd=0.40:0.00 / mixed_ref=1 / me_range=16 / chroma_me=1 / trellis=1 / 8x8dct=1 / cqm=0 / deadzone=21,11 / fast_pskip=1 / chroma_qp_offset=-2 / threads=3 / sliced_threads=0 / nr=0 / decimate=1 / interlaced=0 / constrained_intra=0 / bframes=5 / b_pyramid=2 / b_adapt=1 / b_bias=0 / direct=1 / weightb=1 / weightp=2 / keyint=250 / keyint_min=25 / scenecut=40 / intra_refresh=0 / rc_lookahead=40 / rc=2pass / mbtree=1 / bitrate=1700 / ratetol=1.0 / qcomp=0.60 / qpmin=10 / qpmax=51 / qpstep=4 / cplxblur=20.0 / qblur=0.5 / ip_ratio=1.40 / aq=1:0.60
    Default : Yes
    Forced : No

    Audio #1
    ID : 2
    Format : AC-3
    Format/Info : Audio Coding 3
    Mode extension : CM (complete main)
    Format settings, Endianness : Big
    Codec ID : A_AC3
    Duration : 1h 25mn
    Bit rate mode : Constant
    Bit rate : 192 Kbps
    Channel(s) : 2 channels
    Channel positions : Front: L R
    Sampling rate : 48.0 KHz
    Frame rate : 31.250 fps (1536 spf)
    Compression mode : Lossy
    Stream size : 117 MiB (9%)
    Title : Korean
    Language : Korean
    Default : Yes
    Forced : No

    Audio #2
    ID : 5
    Format : AC-3
    Format/Info : Audio Coding 3
    Mode extension : CM (complete main)
    Format settings, Endianness : Big
    Codec ID : A_AC3
    Duration : 1h 25mn
    Bit rate mode : Constant
    Bit rate : 192 Kbps
    Channel(s) : 2 channels
    Channel positions : Front: L R
    Sampling rate : 44.1 KHz
    Frame rate : 28.711 fps (1536 spf)
    Compression mode : Lossy
    Stream size : 117 MiB (9%)
    Language : Thai
    Default : No
    Forced : No

    Text #1
    ID : 3
    Format : SSA
    Codec ID : S_TEXT/SSA
    Codec ID/Info : Sub Station Alpha
    Duration : 1h 19mn
    Bit rate : 81 bps
    Count of elements : 711
    Compression mode : Lossless
    Stream size : 47.7 KiB (0%)
    Title : English
    Language : English
    Default : No
    Forced : No

    Text #2
    ID : 4
    Format : SSA
    Codec ID : S_TEXT/SSA
    Codec ID/Info : Sub Station Alpha
    Duration : 1h 19mn
    Bit rate : 162 bps
    Count of elements : 747
    Compression mode : Lossless
    Stream size : 95.2 KiB (0%)
    Language : Thai
    Default : Yes
    Forced : No

    http://www.filecondo.com/dl.php?f=MGaeaebjwlzX

  2. The Following User Says Thank You to Duckload.us For This Useful Post:

    n_ton (12-05-2016)

  3. #2
    Senior Member
    สมัครเมื่อ
    Mar 2013
    โพสต์
    1,317
    Thanks
    1,349
    Thanked 0 Times in 0 Posts
    ขอบคุณครับ

  4. #3
    Junior Member
    สมัครเมื่อ
    Sep 2020
    โพสต์
    1
    Thanks
    0
    Thanked 0 Times in 0 Posts
    Link มันใช้ไม่ได้แล้วครับ ;-;

  5. #4
    Junior Member
    สมัครเมื่อ
    Sep 2020
    โพสต์
    4
    Thanks
    0
    Thanked 0 Times in 0 Posts
    Link ใช้ไม่ได้แล้วค่ะ ;-;

+ ตอบกลับกระทู้

ข้อมูลกระทู้

Users Browsing this Thread

ในขณะนี้มี 1 ท่านดูกระทู้อยู่. (0 สมาชิกและ 1 ผู้เยี่ยมชม)

     

กฎการโพสต์ข้อความ

  • ท่าน ไม่สามารถ ตั้งกระทู้ใหม่ได้
  • ท่าน ไม่สามารถ ตอบกระทู้ได้
  • ท่าน ไม่สามารถ แนบไฟล์ได้
  • ท่าน ไม่สามารถ แก้ไขข้อความโพสต์ได้
  • BB code สถานะ เปิด
  • Smilies สถานะ เปิด
  • [IMG] สถานะ เปิด
  • HTML สถานะ ปิด