+ ตอบกลับกระทู้
สรุปผลการค้นหา 1 ถึง 4 จากทั้งหมด 4
  1. #1
    Administrators รูปส่วนตัว Duckload.us
    สมัครเมื่อ
    Dec 2010
    โพสต์
    118,529
    Thanks
    7
    Thanked 124,608 Times in 55,780 Posts

    Angry [จีน]-City Hunter ใหญ่ไม่ใหญ่ ข้าก็ใหญ่ (1993) 1080p-DTS-Blu ray-AVC-H.264-wichainulife[พากย์:ไทย-อังกฤษ-จีน][SUB:ไทย-อังกฤษ]



    เพียงแว็บแรกที่ได้เห็นรูปถ่ายของคิโยโกะ ลูกสาวของเจ้าพ่อที่ชื่ออิมามูระ
    นักสืบเอกชนอย่างซาเอบะ เรียว ก็ตกลงรับงานที่อิมามูระว่าจ้างให้ตามหาคิโยโกะ ทำให้คาโอริ ผู้ช่วยสาวของเรียวโมโหเป็นอย่างมากกับความเจ้าชู้ขอ งเรียว
    คิโยโกะเจอกับโรนัลด์หนุ่มเพลย์บอย ผู้ซึ่งวางแผนจะยึดเรือคาสิโน โรนัลด์ได้เชิญคิโยโกะไปที่งานเลี้ยงด้วยหลังจากขึ้น เรือได้แล้วโรนัลด์และสมุนก็ยึดเรือ
    เขาได้ส่งข้อความเรียกร้องเงินค่าไถ่เรียวได้ส่งสัญญ าณขอความช่วยเหลือไปยังตำรวจ แต่พวกตำรวจถูกโรนัลด์หลอกตำรวจจึงคิดว่าเป็นการเล่น ตลก
    โรนัลด์และพรรคพวกตามจับคิโยโกะและเรียวได้ แต่ในขณะที่โรนัลด์กำลังจะสังหารเรียวนั้น ความช่วยเหลือที่เรียวต้องการก็มาถึง

    Jakie Chan stara as the girl-chasing private detective Ryo Saeba in this hilarious live-action adaptation of the popular Japanese manga series, City Hunter. to track down the runaway daughter of a publishing tycoon, Ryo ends up on a luxury cruise ship hijiacked by terrorists. With the help from his jealous assistant Carrie (Joey Wang), undercover agent Saeko (Chingmy Yau) and gambler Gundam (Leon Lai), Ryo must foil the nefarious plot.


    Quote:
    ทั่วไป
    Unique ID : 233697853158288458570340759235144671377 (0xAFD091BFD9B88F758B1960F89BA36091)
    Complete name : .mkv
    Format : Matroska
    Format version : Version 4 / Version 2
    File size : 8.78 GiB
    Duration : 1 h 39mn
    Overall bit rate : 12.6 Mbps
    Encoded date : UTC 2016-10-31 12:46:26
    Writing application : mkvmerge v8.2.0 ( World of Adventure ) 64bit
    Writing library : libebml v1.3.1 + libmatroska v1.4.2

    วีดีโอ
    ID : 1
    Format : AVC
    Format/Info : Advanced Video Codec
    Format profile : [email protected]
    Format settings, CABAC : ไม่ใช่
    Format settings, ReFrames : 2 frame
    Codec ID : V_MPEG4/ISO/AVC
    Duration : 1 h 39mn
    Bit rate : 10 000 Kbps
    Width : 1 920 พิกเซล
    Height : 1 040 พิกเซล
    Display aspect ratio : 1.85:1
    Frame rate : 23.976 fps
    Color space : YUV
    Chroma subsampling : 4:2:0
    Bit depth : 8 บิต
    Scan type : Progressive
    Bits/(Pixel*Frame) : 0.209
    Stream size : 6.97 GiB (79%)
    Writing library : x264 core 112
    Encoding settings : cabac=0 / ref=1 / deblock=1:0:0 / analyse=0x1:0x111 / me=umh / subme=5 / psy=1 / psy_rd=0.00:0.00 / mixed_ref=0 / me_range=16 / chroma_me=1 / trellis=0 / 8x8dct=0 / cqm=0 / deadzone=21,11 / fast_pskip=0 / chroma_qp_offset=0 / threads=6 / sliced_threads=0 / nr=0 / decimate=1 / interlaced=0 / constrained_intra=0 / bframes=3 / b_pyramid=0 / b_adapt=1 / b_bias=0 / direct=1 / weightb=0 / open_gop=0 / weightp=0 / keyint=240 / keyint_min=23 / scenecut=40 / intra_refresh=0 / rc_lookahead=40 / rc=abr / mbtree=1 / bitrate=10000 / ratetol=1.0 / qcomp=0.60 / qpmin=3 / qpmax=51 / qpstep=4 / ip_ratio=1.40 / aq=1:1.00
    Language : จีน
    Default : ใช่
    Forced : ไม่ใช่
    Color range : Limited
    Color primaries : BT.709
    Transfer characteristics : BT.709
    Matrix coefficients : BT.709

    เสียง #1
    ID : 2
    Format : AC-3
    Format/Info : Audio Coding 3
    Mode extension : CM (complete main)
    Format settings, Endianness : Big
    Codec ID : A_AC3
    Duration : 1 h 38mn
    Bit rate : 448 Kbps
    Channel(s) : 6 ช่อง
    Channel positions : Front: L C R, Side: L R, LFE
    Sampling rate : 48.0 KHz
    Frame rate : 31.250 fps (1536 spf)
    Bit depth : 16 บิต
    Delay relative to video : 28s 900ms
    Stream size : 316 MiB (4%)
    Title : Thai AC-3
    Language : ไทย
    Default : ใช่
    Forced : ใช่

    เสียง #2
    ID : 3
    Format : DTS
    Format/Info : Digital Theater Systems
    Mode : 16
    Format settings, Endianness : Big
    Codec ID : A_DTS
    Duration : 1 h 39mn
    Bit rate : 1 509 Kbps
    Channel(s) : 6 ช่อง
    Channel positions : Front: L C R, Side: L R, LFE
    Sampling rate : 48.0 KHz
    Frame rate : 93.750 fps (512 spf)
    Bit depth : 24 บิต
    Stream size : 1.05 GiB (12%)
    Title : Eng DTS
    Language : อังกฤษ
    Default : ไม่ใช่
    Forced : ไม่ใช่

    เสียง #3
    ID : 4
    Format : AC-3
    Format/Info : Audio Coding 3
    Mode extension : CM (complete main)
    Format settings, Endianness : Big
    Codec ID : A_AC3
    Duration : 1 h 39mn
    Bit rate : 640 Kbps
    Channel(s) : 6 ช่อง
    Channel positions : Front: L C R, Side: L R, LFE
    Sampling rate : 48.0 KHz
    Frame rate : 31.250 fps (1536 spf)
    Bit depth : 16 บิต
    Delay relative to video : 28s 900ms
    Stream size : 453 MiB (5%)
    Title : Chinese AC-3
    Language : จีน
    Default : ไม่ใช่
    Forced : ไม่ใช่

    ข้อความ #1
    ID : 5
    Format : VobSub
    Muxing mode : zlib
    Codec ID : S_VOBSUB
    Codec ID/Info : Picture based subtitle format used on DVDs
    Duration : 1 h 36mn
    Bit rate : 3 433 bps
    Count of elements : 938
    Stream size : 2.36 MiB (0%)
    Title : Thai
    Language : ไทย
    Default : ไม่ใช่
    Forced : ไม่ใช่

    ข้อความ #2
    ID : 6
    Format : VobSub
    Muxing mode : zlib
    Codec ID : S_VOBSUB
    Codec ID/Info : Picture based subtitle format used on DVDs
    Duration : 1 h 35mn
    Bit rate : 1 132 bps
    Count of elements : 1048
    Stream size : 790 KiB (0%)
    Title : Eng
    Language : อังกฤษ
    Default : ไม่ใช่
    Forced : ไม่ใช่





    แบ่งปันโดย : wichainulife

    http://www.filecondo.com/dl.php?f=dD695eblm9fi

    http://cornfile.com/8aiq8i8gq0s1

  2. #2
    Senior Member
    สมัครเมื่อ
    Jul 2012
    โพสต์
    7,082
    Thanks
    0
    Thanked 0 Times in 0 Posts
    ขอบคุณมากจ้า

  3. #3
    Administrators รูปส่วนตัว Duckload.us
    สมัครเมื่อ
    Dec 2010
    โพสต์
    118,529
    Thanks
    7
    Thanked 124,608 Times in 55,780 Posts
    update cornfile

  4. #4
    Member รูปส่วนตัว chatpong9
    สมัครเมื่อ
    Sep 2016
    โพสต์
    32
    Thanks
    0
    Thanked 0 Times in 0 Posts
    ขอบคุณครับพี่

+ ตอบกลับกระทู้

ข้อมูลกระทู้

Users Browsing this Thread

ในขณะนี้มี 1 ท่านดูกระทู้อยู่. (0 สมาชิกและ 1 ผู้เยี่ยมชม)

     

กฎการโพสต์ข้อความ

  • ท่าน ไม่สามารถ ตั้งกระทู้ใหม่ได้
  • ท่าน ไม่สามารถ ตอบกระทู้ได้
  • ท่าน ไม่สามารถ แนบไฟล์ได้
  • ท่าน ไม่สามารถ แก้ไขข้อความโพสต์ได้
  • BB code สถานะ เปิด
  • Smilies สถานะ เปิด
  • [IMG] สถานะ เปิด
  • HTML สถานะ ปิด