[ฝรั่ง]-[Mini HD] Bridget Jones s Baby( 2016) mkv บริดเจ็ท โจนส์ เบบี้ Thai - DTS-[1080p]-[พากย์:อังกฤษ-ไทย]-[SUB:อังกฤษ-ไทย]

IMDb: http://www.imdb.com/title/tt1473832/

เรื่องย่อ

เรเน่ เซลเวเกอร์ และโคลิน เฟิร์ธ ควงคู่กลับมาอีกครั้งในภาพยนตร์โรแมนติคคอเมดี้ขวัญใ จคนโสด Bridget Jones s Babyบริดเจ็ท โจนส์ เบบี้
พร้อมเสริมทีมนักแสดงด้วยแพทริค เด็มพ์ซีย์ และเอ็มม่า ธอมสัน โดยชารอน แม็กไกวร์ จาก Bridget Jones s Dairyกลับมารับหน้าที่ผู้กำกับภาพยนตร์แฟรนไชส์จากตั วละครที่สร้างขึ้นโดยเฮเลน ฟิลดิ้ง อีกครั้ง

General
Unique ID : 221019102802637828860174245621290263507 (0xA646BB1820DE8E15879D62F6771C63D3)
Complete name : [Mini HD]Bridget Jones s Baby( 2016).mkv
Format : Matroska
Format version : Version 4 / Version 2
File size : 4.98 GiB
Duration : 2 h 2 min
Overall bit rate : 5 818 kb/s
Encoded date : UTC 2017-02-24 05:43:41 / UTC 2017-02-24T04:46:40Z
Writing application : mkvmerge v8.3.0 ( Over the Horizon ) 64bit
Writing library : libebml v1.3.1 + libmatroska v1.4.2 / Lavf55.12.0

Video
ID : 1
Format : AVC
Format/Info : Advanced Video Codec
Format profile : [email protected]
Format settings, CABAC : Yes
Format settings, ReFrames : 4 frames
Codec ID : V_MPEG4/ISO/AVC
Duration : 2 h 2 min
Bit rate : 3 425 kb/s
Width : 1 920 pixels
Height : 804 pixels
Display aspect ratio : 2.40:1
Frame rate mode : Constant
Frame rate : 23.976 (24000/1001) FPS
Color space : YUV
Chroma subsampling : 4:2:0
Bit depth : 8 bits
Scan type : Progressive
Bits/(Pixel*Frame) : 0.093
Stream size : 2.93 GiB (59%)
Writing library : x264 core 142 r2479 dd79a61
Encoding settings : cabac=1 / ref=1 / deblock=1:0:0 / analyse=0x1:0x111 / me=hex / subme=2 / psy=1 / psy_rd=1.00:0.00 / mixed_ref=0 / me_range=16 / chroma_me=1 / trellis=0 / 8x8dct=0 / cqm=0 / deadzone=21,11 / fast_pskip=1 / chroma_qp_offset=0 / threads=12 / lookahead_threads=4 / sliced_threads=0 / nr=0 / decimate=1 / interlaced=0 / bluray_compat=0 / constrained_intra=0 / bframes=3 / b_pyramid=2 / b_adapt=1 / b_bias=0 / direct=1 / weightb=1 / open_gop=0 / weightp=1 / keyint=240 / keyint_min=24 / scenecut=40 / intra_refresh=0 / rc_lookahead=10 / rc=crf / mbtree=1 / crf=20.0 / qcomp=0.60 / qpmin=0 / qpmax=69 / qpstep=4 / vbv_maxrate=20000 / vbv_bufsize=25000 / crf_max=0.0 / nal_hrd=none / filler=0 / ip_ratio=1.40 / aq=1:1.00
Language : Thai
Default : Yes
Forced : Yes
Color range : Limited
Color primaries : BT.709
Transfer characteristics : BT.709
Matrix coefficients : BT.709
Statistics Tags Issue : mkvmerge v8.3.0 ( Over the Horizon ) 64bit 2017-02-24 05:43:41 / mkvmerge v8.3.0 ( Over the Horizon ) 64bit 2017-02-24 05:43:41 / UTC 2017-02-24T04:46:40Z
FromStats_BitRate : 3511933
FromStats_Duration : 02:02:38.785000000
FromStats_FrameCount : 176433
FromStats_StreamSize : 3230445439

Audio #1
ID : 2
Format : DTS
Format/Info : Digital Theater Systems
Mode : 16
Format settings, Endianness : Big
Codec ID : A_DTS
Duration : 2 h 2 min
Bit rate mode : Constant
Bit rate : 1 509 kb/s
Channel(s) : 6 channels
Channel positions : Front: L C R, Side: L R, LFE
Sampling rate : 48.0 kHz
Frame rate : 93.750 FPS (512 spf)
Bit depth : 24 bits
Compression mode : Lossy
Stream size : 1.29 GiB (26%)
Title : Surround
Language : English
Default : No
Forced : No
Statistics Tags Issue : mkvmerge v8.3.0 ( Over the Horizon ) 64bit 2017-02-24 05:43:41 / mkvmerge v8.3.0 ( Over the Horizon ) 64bit 2017-02-24 05:43:41 / UTC 2017-02-24T04:46:40Z
FromStats_BitRate : 1508999
FromStats_Duration : 02:02:38.763000000
FromStats_FrameCount : 689884
FromStats_StreamSize : 1388046608

Audio #2
ID : 3
Format : DTS
Format/Info : Digital Theater Systems
Mode : 16
Format settings, Endianness : Big
Codec ID : A_DTS
Duration : 2 h 2 min
Bit rate mode : Constant
Bit rate : 768 kb/s
Channel(s) : 6 channels
Channel positions : Front: L C R, Side: L R, LFE
Sampling rate : 48.0 kHz
Frame rate : 93.750 FPS (512 spf)
Bit depth : 24 bits
Compression mode : Lossy
Stream size : 674 MiB (13%)
Title : Surround
Language : Thai
Default : Yes
Forced : Yes
Statistics Tags Issue : mkvmerge v8.3.0 ( Over the Horizon ) 64bit 2017-02-24 05:43:41 / mkvmerge v8.3.0 ( Over the Horizon ) 64bit 2017-02-24 05:43:41 / UTC 2017-02-24T04:46:40Z
FromStats_BitRate : 767999
FromStats_Duration : 02:02:38.763000000
FromStats_FrameCount : 689884
FromStats_StreamSize : 706441216

Text #1
ID : 4
Format : PGS
Muxing mode : zlib
Codec ID : S_HDMV/PGS
Codec ID/Info : Picture based subtitle format used on BDs/HD-DVDs
Language : English
Default : No
Forced : No
Statistics Tags Issue : mkvmerge v8.3.0 ( Over the Horizon ) 64bit 2017-02-24 05:43:41 / mkvmerge v8.3.0 ( Over the Horizon ) 64bit 2017-02-24 05:43:41 / UTC 2017-02-24T04:46:40Z
FromStats_BitRate : 16482
FromStats_Duration : 01:54:15.974000000
FromStats_FrameCount : 4287
FromStats_StreamSize : 14125326

Text #2
ID : 5
Format : PGS
Muxing mode : zlib
Codec ID : S_HDMV/PGS
Codec ID/Info : Picture based subtitle format used on BDs/HD-DVDs
Language : Thai
Default : No
Forced : No
Statistics Tags Issue : mkvmerge v8.3.0 ( Over the Horizon ) 64bit 2017-02-24 05:43:41 / mkvmerge v8.3.0 ( Over the Horizon ) 64bit 2017-02-24 05:43:41 / UTC 2017-02-24T04:46:40Z
FromStats_BitRate : 10344
FromStats_Duration : 02:01:20.857000000
FromStats_FrameCount : 3944
FromStats_StreamSize : 9414868

Text #3
ID : 6
Format : PGS
Muxing mode : zlib
Codec ID : S_HDMV/PGS
Codec ID/Info : Picture based subtitle format used on BDs/HD-DVDs
Language : Thai
Default : Yes
Forced : Yes
Statistics Tags Issue : mkvmerge v8.3.0 ( Over the Horizon ) 64bit 2017-02-24 05:43:41 / mkvmerge v8.3.0 ( Over the Horizon ) 64bit 2017-02-24 05:43:41 / UTC 2017-02-24T04:46:40Z
FromStats_BitRate : 127
FromStats_Duration : 02:01:20.857000000
FromStats_FrameCount : 44
FromStats_StreamSize : 115871

SS


เครดิต: MONOCONO

http://cornfile.com/ji3epju9qxu0