+ ตอบกลับกระทู้
สรุปผลการค้นหา 1 ถึง 2 จากทั้งหมด 2
  1. #1
    Administrators รูปส่วนตัว Duckload.us
    สมัครเมื่อ
    Dec 2010
    โพสต์
    114,610
    Thanks
    7
    Thanked 120,929 Times in 54,360 Posts

    Angry [ฝรั่ง]-8MM (1999) ฟิล์มมรณะ 1080p.WEBRip.AC3.264 [พากย์ไทย 5.1 + อังกฤษ 5.1] [บรรยายไทย PGS + อังกฤษ] เสียง,ซับ ความละเอียดสูง From Master




    8MM / 1999 (ฟิล์มมรณะ) หนังติดเรต 18+ ผลงานการกำกับของ Joel Schumacher บทหนังโดย Andrew Kevin Walker ใน 8MM ฟิล์มมรณะนำเสนอเรื่องราวของนักสืบหนุ่ม Tom Welles (รับบทโดย Nicolas Cage) ที่เข้าไปพัวพันกับแผ่นฟิล์มปริศนา Snuff Films เกี่ยวกับการฆาตกรรมเด็กสาวนางหนึ่งของครอบครัวมหาเศ รษฐีม่าย Mrs. Christian (รับบทโดย Myra Carter) ตอนแรกที่ Tom Welles ได้เห็นแผ่นฟิล์มดังกล่าว เขาคิดเพียงเป็นเรื่องขบขันและเอ่ยวาจากับ Mrs. Christian ว่า “ที่คุณพูดอยู่นี่ดูเหมือนจะเรียกว่า Snuff Films เท่าที่ผมรู้ Snuff Films เป็นเรื่องที่เล่าขานกันมาเกี่ยวกับธุรกิจหนังเอ็กซ์ มันไม่มีจริงหรอกครับ” อย่างไรก็ตาม หลังจากทนการรบเร้าจาก Daniel Longdale (รับบทโดย Anthony Heald) ทนายความประจำตระกูล และจากตัวของ Mrs. Christian หญิงม่ายที่เพิ่งสูญเสียสามีสุดรัก ทำให้พ่อหนุ่ม Tom Welles ยอมดูหนังลึกลับดังกล่าว จนสรุปว่า มันคือ Snuff Films ของจริง !!


    General
    8MM.1999.1080p.WEBRip.AC3.264-วิถีคนพาล.mkv
    Format : Matroska
    Format version : Version 4 / Version 2
    File size : 10.1 GiB
    Duration : 2h 3mn
    Overall bit rate mode : Variable
    Overall bit rate : 11.8 Mbps
    Movie name : 8MM.1999.1080p.WEBRip.AC3.264-วิถีคนพาล
    Encoded date : UTC 2017-03-16 07:53:31
    Writing application : mkvmerge v9.8.0 ( Kuglblids ) 64bit
    Writing library : libebml v1.3.4 + libmatroska v1.4.5
    DURATION : 01:58:48.880000000
    NUMBER_OF_FRAMES : 2920
    NUMBER_OF_BYTES : 13954137
    _STATISTICS_WRITING_APP : mkvmerge v9.8.0 ( Kuglblids ) 64bit
    _STATISTICS_WRITING_DATE_UTC : 2017-03-16 07:53:31
    _STATISTICS_TAGS : BPS DURATION NUMBER_OF_FRAMES NUMBER_OF_BYTES

    Video
    ID : 1
    Format : AVC
    Format/Info : Advanced Video Codec
    Format profile : [email protected]
    Format settings, CABAC : Yes
    Format settings, ReFrames : 4 frames
    Codec ID : V_MPEG4/ISO/AVC
    Duration : 2h 3mn
    Bit rate mode : Variable
    Bit rate : 10.3 Mbps
    Maximum bit rate : 15.0 Mbps
    Width : 1 920 pixels
    Height : 1 080 pixels
    Display aspect ratio : 16:9
    Frame rate mode : Constant
    Frame rate : 23.976 fps
    Color space : YUV
    Chroma subsampling : 4:2:0
    Bit depth : 8 bits
    Scan type : Progressive
    Bits/(Pixel*Frame) : 0.207
    Stream size : 8.86 GiB (87%)
    Title : 8MM.1999.1080p.WEBRip.AC3.264-วิถีคนพาล
    Writing library : x264 core 148 r2623 d5b2374
    Encoding settings : cabac=1 / ref=4 / deblock=1:-1:-1 / analyse=0x3:0x133 / me=umh / subme=9 / psy=1 / psy_rd=1.00:0.15 / mixed_ref=1 / me_range=24 / chroma_me=1 / trellis=2 / 8x8dct=1 / cqm=0 / deadzone=21,11 / fast_pskip=1 / chroma_qp_offset=-3 / threads=34 / lookahead_threads=5 / sliced_threads=0 / nr=150 / decimate=1 / interlaced=0 / bluray_compat=0 / constrained_intra=0 / bframes=8 / b_pyramid=2 / b_adapt=2 / b_bias=0 / direct=3 / weightb=1 / open_gop=0 / weightp=2 / keyint=120 / keyint_min=61 / scenecut=0 / intra_refresh=0 / rc_lookahead=120 / rc=crf / mbtree=1 / crf=18.0 / qcomp=0.60 / qpmin=0 / qpmax=69 / qpstep=4 / vbv_maxrate=15000 / vbv_bufsize=31250 / crf_max=0.0 / nal_hrd=vbr / filler=0 / ip_ratio=1.40 / aq=3:1.00
    Language : English
    Default : Yes
    Forced : No
    Color range : Limited
    Color primaries : BT.709
    Transfer characteristics : BT.709
    Matrix coefficients : BT.709
    DURATION : 02:03:14.016000000
    NUMBER_OF_FRAMES : 231063
    NUMBER_OF_BYTES : 207032448
    _STATISTICS_WRITING_APP : mkvmerge v9.8.0 ( Kuglblids ) 64bit
    _STATISTICS_WRITING_DATE_UTC : 2017-03-16 07:53:31
    _STATISTICS_TAGS : BPS DURATION NUMBER_OF_FRAMES NUMBER_OF_BYTES

    Audio #1
    ID : 2
    Format : AC-3
    Format/Info : Audio Coding 3
    Mode extension : CM (complete main)
    Format settings, Endianness : Big
    Codec ID : A_AC3
    Duration : 2h 3mn
    Bit rate mode : Constant
    Bit rate : 384 Kbps
    Channel(s) : 6 channels
    Channel positions : Front: L C R, Side: L R, LFE
    Sampling rate : 48.0 KHz
    Compression mode : Lossy
    Delay relative to video : 500ms
    Stream size : 339 MiB (3%)
    Title : THAI Master AC3 5.1 @ 384 Kbps
    Language : Thai
    Default : Yes
    Forced : Yes
    DURATION : 02:03:14.054000000
    NUMBER_OF_FRAMES : 177280
    NUMBER_OF_BYTES : 9658484453
    _STATISTICS_WRITING_APP : mkvmerge v9.8.0 ( Kuglblids ) 64bit
    _STATISTICS_WRITING_DATE_UTC : 2017-03-16 07:53:31
    _STATISTICS_TAGS : BPS DURATION NUMBER_OF_FRAMES NUMBER_OF_BYTES

    Audio #2
    ID : 3
    Format : AC-3
    Format/Info : Audio Coding 3
    Mode extension : CM (complete main)
    Format settings, Endianness : Big
    Codec ID : A_AC3
    Duration : 2h 3mn
    Bit rate mode : Constant
    Bit rate : 640 Kbps
    Channel(s) : 6 channels
    Channel positions : Front: L C R, Side: L R, LFE
    Sampling rate : 48.0 KHz
    Compression mode : Lossy
    Delay relative to video : 4ms
    Stream size : 564 MiB (5%)
    Title : ENG AC3 5.1 @ 640 Kbps
    Language : English
    Default : No
    Forced : No
    DURATION : 01:58:23.496000000
    NUMBER_OF_FRAMES : 1445
    NUMBER_OF_BYTES : 50892
    _STATISTICS_WRITING_APP : mkvmerge v9.8.0 ( Kuglblids ) 64bit
    _STATISTICS_WRITING_DATE_UTC : 2017-03-16 07:53:31
    _STATISTICS_TAGS : BPS DURATION NUMBER_OF_FRAMES NUMBER_OF_BYTES

    Audio #3
    ID : 4
    Format : E-AC-3
    Format/Info : Audio Coding 3
    Format settings, Endianness : Big
    Codec ID : A_EAC3
    Duration : 2h 3mn
    Bit rate mode : Constant
    Bit rate : 224 Kbps
    Channel(s) : 2 channels
    Channel positions : Front: L R
    Sampling rate : 48.0 KHz
    Compression mode : Lossy
    Stream size : 197 MiB (2%)
    Title : ENG AC3 2.0 @ 224 Kbps
    Language : English
    Default : No
    Forced : No

    Text #1
    ID : 5
    Format : VobSub
    Muxing mode : zlib
    Codec ID : S_VOBSUB
    Codec ID/Info : Picture based subtitle format used on DVDs
    Title : THA 480p From DVD Master
    Language : Thai
    Default : No
    Forced : No

    Text #2
    ID : 6
    Format : VobSub
    Muxing mode : zlib
    Codec ID : S_VOBSUB
    Codec ID/Info : Picture based subtitle format used on DVDs
    Title : THA 720p AS
    Language : Thai
    Default : No
    Forced : No

    Text #3
    ID : 7
    Format : VobSub
    Muxing mode : zlib
    Codec ID : S_VOBSUB
    Codec ID/Info : Picture based subtitle format used on DVDs
    Title : THA 1080p AS Yellow
    Language : Thai
    Default : No
    Forced : No

    Text #4
    ID : 8
    Format : VobSub
    Muxing mode : zlib
    Codec ID : S_VOBSUB
    Codec ID/Info : Picture based subtitle format used on DVDs
    Title : THA 1080p AS
    Language : Thai
    Default : No
    Forced : No

    Text #5
    ID : 9
    Format : VobSub
    Muxing mode : zlib
    Codec ID : S_VOBSUB
    Codec ID/Info : Picture based subtitle format used on DVDs
    Title : THA 1080p FS
    Language : Thai
    Default : Yes
    Forced : Yes

    Text #6
    ID : 10
    Format : VobSub
    Muxing mode : zlib
    Codec ID : S_VOBSUB
    Codec ID/Info : Picture based subtitle format used on DVDs
    Title : THA 1080p TA
    Language : Thai
    Default : No
    Forced : No

    Text #7
    ID : 11
    Format : PGS
    Muxing mode : zlib
    Codec ID : S_HDMV/PGS
    Codec ID/Info : Picture based subtitle format used on BDs/HD-DVDs
    Title : THA PGS AS
    Language : Thai
    Default : No
    Forced : No

    Text #8
    ID : 12
    Format : PGS
    Muxing mode : zlib
    Codec ID : S_HDMV/PGS
    Codec ID/Info : Picture based subtitle format used on BDs/HD-DVDs
    Title : THA PGS FS
    Language : Thai
    Default : No
    Forced : No

    Text #9
    ID : 13
    Format : PGS
    Muxing mode : zlib
    Codec ID : S_HDMV/PGS
    Codec ID/Info : Picture based subtitle format used on BDs/HD-DVDs
    Title : THA PGS TA
    Language : Thai
    Default : No
    Forced : No

    Text #10
    ID : 14
    Format : UTF-8
    Codec ID : S_TEXT/UTF8
    Codec ID/Info : UTF-8 Plain Text
    Title : ENG SRT
    Language : English
    Default : No
    Forced : No










    http://cornfile.com/c1avievig5x3

  2. #2
    Senior Member รูปส่วนตัว ksurachai
    สมัครเมื่อ
    Nov 2019
    โพสต์
    150
    Thanks
    54
    Thanked 0 Times in 0 Posts
    รบกวนอัพให้ใหม่หน่อยครับ

+ ตอบกลับกระทู้

ข้อมูลกระทู้

Users Browsing this Thread

ในขณะนี้มี 1 ท่านดูกระทู้อยู่. (0 สมาชิกและ 1 ผู้เยี่ยมชม)

     

กฎการโพสต์ข้อความ

  • ท่าน ไม่สามารถ ตั้งกระทู้ใหม่ได้
  • ท่าน ไม่สามารถ ตอบกระทู้ได้
  • ท่าน ไม่สามารถ แนบไฟล์ได้
  • ท่าน ไม่สามารถ แก้ไขข้อความโพสต์ได้
  • BB code สถานะ เปิด
  • Smilies สถานะ เปิด
  • [IMG] สถานะ เปิด
  • HTML สถานะ ปิด