+ ตอบกลับกระทู้
สรุปผลการค้นหา 1 ถึง 2 จากทั้งหมด 2
  1. #1
    Administrators รูปส่วนตัว Duckload.us
    สมัครเมื่อ
    Dec 2010
    โพสต์
    108,513
    Thanks
    7
    Thanked 113,462 Times in 52,350 Posts

    Angry [ฝรั่ง]- Duel (1971) ตำนานโหด ฝ่าตีนอำมหิต, Steven Spielberg กับงานแจ้งเกิดชิ้นสำคัญ -Blu-ray.DTS.1080p. [Rip]-[พากย์ไทย DTS 5.1 + อังกฤษ DTS 5.1] [บรรยายไทย PGS + อังกฤษ] เสัยง,ซับ ความคมชัดสูง Blu-Ray Master




    แนวหนัง ระทึกขวัญ

    ถ้าคุณอยากรู้ว่า Steven Spielberg แจ้งเกิดอย่างไร ดูหนังเรื่องนี้แล้วคงจะเข้าใจขึ้นในระดับหนึ่ง

    Duel คือหนังสำหรับฉายทางทีวีครับ แต่ด้วยคุณภาพที่ยอดเยี่ยมของมันก็ทำให้ผู้ชมต่างจดจ ำชื่อผู้กำกับหนุ่มรายนี้กันเป็นแถบ แล้วทางผู้สร้างเองก็บยังตัดสินใจนำหนังเรื่องนี้ไปใ นฉายในโรงทางยุโรป ซึ่งก็ได้ผลตอบรับดีอีกต่างหาก

    เรื่องราวนั้นจริงๆ แทบไม่มีอะไรเลยครับ เล่าถึง เดวิด มานน์ (Dennis Weaver) นักธุรกิจที่ต้องรีบขับรถข้ามรัฐไปให้ทันนัดหมาย แล้วระหว่างทางเขาก็พบเจอกับรถบรรทุกเก่าๆ คันหนึ่งครับ ซึ่งเขาก็ไม่ได้คิดอะไรมาก แค่รถที่ขับช้าๆ อีกคันเท่านั้นเอง ก็เลยแซงไป... แต่ใครจะรู้ล่ะครับว่าเขาไม่ควรไปยุ่งกับรถคันนี้เลย เพราะหลังจากวินาทีนั้นเป็นต้นมา เจ้ารถบรรทุกบ้านี่ก็ไล่ตามเขาไปทุกที และยิ่งตามก็ยิ่งหนักข้อ เหมือนจะเอาเรื่องเขาให้ถึงชีวิตให้ได้

    แล้วเดวิดจะรอดจากการตามล่าของเจ้ารถลึกลับนี้ได้หรื อไม่ โปรดติดตามครับ

    ที่ผมทึ่งมากๆ คือ หนังทั้งเรื่องเนี่ยไม่ได้มีอะไรนอกจากการขับรถไล่ตา มกัน แต่ก็สร้างความน่าติดตามได้ตลอดทั้งเรื่อง ตื่นเต้น ดึงความสนใจคนดูได้ตลอดอย่างไม่น่าเชื่อ


    General
    Unique ID : 215194696058882948224422845209454736239 (0xA1E4FDABB555685582011ECC6A86736F)
    Complete name : Duel.1971.1080p.BluRay.H264.dts-th-วิถีคนพาล.mkv
    Format : Matroska
    Format version : Version 4 / Version 2
    File size : 8.21 GiB
    Duration : 1 h 29 min
    Overall bit rate : 13.2 Mb/s
    Movie name : Duel.1971.1080p.BluRay.H264.dts-th-วิถีคนพาล
    Encoded date : UTC 2017-03-17 06:42:39
    Writing application : mkvmerge v9.8.0 ( Kuglblids ) 64bit
    Writing library : libebml v1.3.4 + libmatroska v1.4.5

    Video
    ID : 1
    Format : AVC
    Format/Info : Advanced Video Codec
    Format profile : [email protected]
    Format settings, CABAC : Yes
    Format settings, ReFrames : 4 frames
    Codec ID : V_MPEG4/ISO/AVC
    Duration : 1 h 29 min
    Bit rate : 10.9 Mb/s
    Width : 1 920 pixels
    Height : 1 040 pixels
    Display aspect ratio : 1.85:1
    Frame rate mode : Constant
    Frame rate : 23.976 (24000/1001) FPS
    Color space : YUV
    Chroma subsampling : 4:2:0
    Bit depth : 8 bits
    Scan type : Progressive
    Bits/(Pixel*Frame) : 0.227
    Stream size : 6.78 GiB (83%)
    Title : Duel.1971.1080p.BluRay.H264.dts-th-วิถีคนพาล
    Writing library : x264 core 148 r2579 73ae2d1
    Encoding settings : cabac=1 / ref=4 / deblock=1:-1:-1 / analyse=0x3:0x133 / me=umh / subme=11 / psy=1 / psy_rd=1.00:0.15 / mixed_ref=1 / me_range=32 / chroma_me=1 / trellis=2 / 8x8dct=1 / cqm=0 / deadzone=21,11 / fast_pskip=0 / chroma_qp_offset=-3 / threads=6 / lookahead_threads=1 / sliced_threads=0 / nr=0 / decimate=1 / interlaced=0 / bluray_compat=0 / constrained_intra=0 / bframes=5 / b_pyramid=2 / b_adapt=2 / b_bias=0 / direct=3 / weightb=1 / open_gop=0 / weightp=2 / keyint=240 / keyint_min=23 / scenecut=40 / intra_refresh=0 / rc_lookahead=60 / rc=crf / mbtree=1 / crf=19.0 / qcomp=0.60 / qpmin=0 / qpmax=69 / qpstep=4 / vbv_maxrate=50000 / vbv_bufsize=50000 / crf_max=0.0 / nal_hrd=none / filler=0 / ip_ratio=1.40 / aq=1:1.00
    Default : Yes
    Forced : No

    Audio #1
    ID : 2
    Format : DTS
    Format/Info : Digital Theater Systems
    Mode : 16
    Format settings, Endianness : Big
    Codec ID : A_DTS
    Duration : 1 h 29 min
    Bit rate mode : Constant
    Bit rate : 768 kb/s
    Channel(s) : 6 channels
    Channel positions : Front: L C R, Side: L R, LFE
    Sampling rate : 48.0 kHz
    Frame rate : 93.750 FPS (512 spf)
    Bit depth : 24 bits
    Compression mode : Lossy
    Stream size : 490 MiB (6%)
    Language : Thai
    Default : Yes
    Forced : Yes

    Audio #2
    ID : 3
    Format : DTS
    Format/Info : Digital Theater Systems
    Mode : 16
    Format settings, Endianness : Big
    Codec ID : A_DTS
    Duration : 1 h 29 min
    Bit rate mode : Constant
    Bit rate : 1 509 kb/s
    Channel(s) : 6 channels
    Channel positions : Front: L C R, Side: L R, LFE
    Sampling rate : 48.0 kHz
    Frame rate : 93.750 FPS (512 spf)
    Bit depth : 24 bits
    Compression mode : Lossy
    Delay relative to video : 11 ms
    Stream size : 963 MiB (11%)
    Language : English
    Default : No
    Forced : Yes

    Text #1
    ID : 4
    Format : VobSub
    Muxing mode : zlib
    Codec ID : S_VOBSUB
    Codec ID/Info : Picture based subtitle format used on DVDs
    Duration : 1 h 20 min
    Bit rate : 1 062 b/s
    Count of elements : 464
    Stream size : 625 KiB (0%)
    Title : THA 480 From Bluray Master
    Language : Thai
    Default : No
    Forced : No

    Text #2
    ID : 5
    Format : VobSub
    Muxing mode : zlib
    Codec ID : S_VOBSUB
    Codec ID/Info : Picture based subtitle format used on DVDs
    Duration : 1 h 20 min
    Bit rate : 3 182 b/s
    Count of elements : 464
    Stream size : 1.83 MiB (0%)
    Title : THA 1080p AS Yellow
    Language : Thai
    Default : No
    Forced : No

    Text #3
    ID : 6
    Format : VobSub
    Muxing mode : zlib
    Codec ID : S_VOBSUB
    Codec ID/Info : Picture based subtitle format used on DVDs
    Duration : 1 h 20 min
    Bit rate : 3 185 b/s
    Count of elements : 464
    Stream size : 1.83 MiB (0%)
    Title : THA 1080p AS
    Language : Thai
    Default : No
    Forced : No

    Text #4
    ID : 7
    Format : VobSub
    Muxing mode : zlib
    Codec ID : S_VOBSUB
    Codec ID/Info : Picture based subtitle format used on DVDs
    Duration : 1 h 20 min
    Bit rate : 2 370 b/s
    Count of elements : 464
    Stream size : 1.36 MiB (0%)
    Title : THA 1080p TA
    Language : Thai
    Default : Yes
    Forced : Yes

    Text #5
    ID : 8
    Format : PGS
    Muxing mode : zlib
    Codec ID : S_HDMV/PGS
    Codec ID/Info : Picture based subtitle format used on BDs/HD-DVDs
    Duration : 1 h 20 min
    Bit rate : 10.5 kb/s
    Count of elements : 928
    Stream size : 6.05 MiB (0%)
    Title : THA PGS AS
    Language : Thai
    Default : No
    Forced : No

    Text #6
    ID : 9
    Format : PGS
    Muxing mode : zlib
    Codec ID : S_HDMV/PGS
    Codec ID/Info : Picture based subtitle format used on BDs/HD-DVDs
    Duration : 1 h 20 min
    Bit rate : 4 794 b/s
    Count of elements : 932
    Stream size : 2.75 MiB (0%)
    Title : THA PGS TA Original
    Default : No
    Forced : No

    Text #7
    ID : 10
    Format : UTF-8
    Codec ID : S_TEXT/UTF8
    Codec ID/Info : UTF-8 Plain Text
    Duration : 1 h 20 min
    Bit rate : 30 b/s
    Count of elements : 521
    Stream size : 17.9 KiB (0%)
    Title : ENG SRT
    Language : English
    Default : No
    Forced : No

    Menu #1
    00:00:00.000 : en:00:00:00.000
    00:04:40.864 : en:00:04:40.864
    00:09:03.543 : en:00:09:03.543
    00:14:58.648 : en:00:14:58.648
    00:18:53.215 : en:00:18:53.215
    00:25:10.259 : en:00:25:10.259
    00:29:07.204 : en:00:29:07.204
    00:33:05.817 : en:00:33:05.817
    00:39:11.975 : en:00:39:11.975
    00:41:38.996 : en:00:41:38.996
    00:43:42.328 : en:00:43:42.328
    00:50:50.839 : en:00:50:50.839
    00:55:35.916 : en:00:55:35.916
    00:59:46.458 : en:00:59:46.458
    01:03:12.998 : en:01:03:12.998
    01:09:06.184 : en:01:09:06.184
    01:16:28.918 : en:01:16:28.918
    01:20:38.834 : en:01:20:38.834
    01:24:12.089 : en:01:24:12.089
    01:26:17.339 : en:01:26:17.339

    Menu #2
    00:00:00.054 : en:00:00:00.054











    http://cornfile.com/ke3wjd7lig7a

  2. #2
    Member
    สมัครเมื่อ
    Nov 2019
    โพสต์
    45
    Thanks
    4
    Thanked 0 Times in 0 Posts
    รบกวนอัพใหม่ได้มั๊ยครับ pleaseeeee!!!

+ ตอบกลับกระทู้

ข้อมูลกระทู้

Users Browsing this Thread

ในขณะนี้มี 1 ท่านดูกระทู้อยู่. (0 สมาชิกและ 1 ผู้เยี่ยมชม)

     

กฎการโพสต์ข้อความ

  • ท่าน ไม่สามารถ ตั้งกระทู้ใหม่ได้
  • ท่าน ไม่สามารถ ตอบกระทู้ได้
  • ท่าน ไม่สามารถ แนบไฟล์ได้
  • ท่าน ไม่สามารถ แก้ไขข้อความโพสต์ได้
  • BB code สถานะ เปิด
  • Smilies สถานะ เปิด
  • [IMG] สถานะ เปิด
  • HTML สถานะ ปิด