+ ตอบกลับกระทู้
หน้า 2 จากทั้งหมด 22 หน้า หน้าแรกหน้าแรก 1 2 3 4 12 ... หน้าสุดท้ายหน้าสุดท้าย
สรุปผลการค้นหา 11 ถึง 20 จากทั้งหมด 213
  1. #11
    Senior Member
    สมัครเมื่อ
    May 2012
    โพสต์
    220
    Thanks
    0
    Thanked 0 Times in 0 Posts
    มักแฮงครับ เรื่องนี้ เบิ่งแต่เป็นเด็กน้อย ม่านประเพณีรักเรานี้ชั่วนิรันดร์

  2. #12
    Senior Member
    สมัครเมื่อ
    Sep 2014
    โพสต์
    2,884
    Thanks
    2
    Thanked 0 Times in 0 Posts
    ขอบคุณครับ

  3. #13
    Senior Member
    สมัครเมื่อ
    May 2012
    โพสต์
    220
    Thanks
    0
    Thanked 0 Times in 0 Posts
    ชอบมากครับ ม่านประเพณี เสียงโรงอินทรี ซะด้วย สุดยอด

  4. #14
    Member
    สมัครเมื่อ
    Nov 2012
    โพสต์
    96
    Thanks
    0
    Thanked 4 Times in 3 Posts

    Angry [จีน] [Mini-HD 720P] คนตัดคน พิเศษ 2 ตอน เกาจิ้งตัดเอง : God of Gamblers Return (1994) : [เสียงไทย AC3 2ch;ซับจีนฝัง อินทรีต้นฉบับ]



    เป็นที่รู้จักกันอย่างดีอยู่แล้วสำหรับภาคนี้ โจวเหวินฟะ กลับมารับบทเกาจิ้งอีกครั้ง ร่วมด้วยดาราอีกมากมาย อาทิ เหลียงเจียฮุย ชิวซู่เจิน อู๋เชี่ยนเหลียน เสียงไทยโดย อินทรี ต้นตำรับความฮา

    [IMG][/IMG]


    General
    Unique ID : 237500534688961320750489858449480388319 (0xB2ACF06C90369F989D75110727788EDF)
    Complete name : D:\เกาจิ้งตัดเอง.mkv
    Format : Matroska
    Format version : Version 4 / Version 2
    File size : 1.88 GiB
    Duration : 2 h 4 min
    Overall bit rate : 2 158 kb/s
    Encoded date : UTC 2017-05-01 05:35:29
    Writing application : mkvmerge v9.6.0 ('Slave To Your Mind') 32bit
    Writing library : libebml v1.3.4 + libmatroska v1.4.5

    Video
    ID : 1
    Format : AVC
    Format/Info : Advanced Video Codec
    Format profile : [email protected]
    Format settings, CABAC : Yes
    Format settings, ReFrames : 4 frames
    Codec ID : V_MPEG4/ISO/AVC
    Duration : 2 h 4 min
    Bit rate : 1 900 kb/s
    Width : 1 280 pixels
    Height : 720 pixels
    Display aspect ratio : 16:9
    Frame rate mode : Constant
    Frame rate : 23.976 (24000/1001) FPS
    Color space : YUV
    Chroma subsampling : 4:2:0
    Bit depth : 8 bits
    Scan type : Progressive
    Bits/(Pixel*Frame) : 0.086
    Stream size : 1.65 GiB (88%)
    Writing library : x264 core 148 r2708 86b7198
    Encoding settings : cabac=1 / ref=2 / deblock=1:0:0 / analyse=0x1:0x111 / me=hex / subme=6 / psy=1 / psy_rd=1.00:0.00 / mixed_ref=1 / me_range=16 / chroma_me=1 / trellis=1 / 8x8dct=0 / cqm=0 / deadzone=21,11 / fast_pskip=1 / chroma_qp_offset=-2 / threads=6 / lookahead_threads=1 / sliced_threads=0 / nr=0 / decimate=1 / interlaced=0 / bluray_compat=0 / constrained_intra=0 / bframes=3 / b_pyramid=2 / b_adapt=1 / b_bias=0 / direct=1 / weightb=1 / open_gop=0 / weightp=1 / keyint=240 / keyint_min=24 / scenecut=40 / intra_refresh=0 / rc_lookahead=30 / rc=crf / mbtree=1 / crf=22.0 / qcomp=0.60 / qpmin=0 / qpmax=69 / qpstep=4 / vbv_maxrate=20000 / vbv_bufsize=25000 / crf_max=0.0 / nal_hrd=none / filler=0 / ip_ratio=1.40 / aq=1:1.00
    Default : Yes
    Forced : No
    Color range : Limited
    Color primaries : BT.709
    Transfer characteristics : BT.709
    Matrix coefficients : BT.709

    Audio
    ID : 2
    Format : AC-3
    Format/Info : Audio Coding 3
    Format settings, Endianness : Big
    Codec ID : A_AC3
    Duration : 2 h 4 min
    Bit rate mode : Constant
    Bit rate : 256 kb/s
    Channel(s) : 2 channels
    Channel positions : Front: L R
    Sampling rate : 48.0 kHz
    Frame rate : 31.250 FPS (1536 spf)
    Bit depth : 16 bits
    Compression mode : Lossy
    Stream size : 228 MiB (12%)
    Language : Thai
    Service kind : Complete Main
    Default : Yes
    Forced : No

    http://cornfile.com/b60fy4twscc5
    แก้ไขครั้งล่าสุดโดย galamung : 12-18-2017 เมื่อ 03:08 PM

  5. #15
    Senior Member
    สมัครเมื่อ
    Sep 2014
    โพสต์
    2,884
    Thanks
    2
    Thanked 0 Times in 0 Posts
    ภาคนี้ก็สนุกดีตรับ ขอบคุณมากครับ

  6. #16
    Member
    สมัครเมื่อ
    Nov 2012
    โพสต์
    96
    Thanks
    0
    Thanked 4 Times in 3 Posts

    Angry [จีน] [dvdrip] ระห่ำตัดระห่ำ : Big Bullet (1996) : [เสียงไทย 2.0 พันธมิตรต้นฉบับ : ซับจีนฝัง]



    หนังแอคชั่นมันส์ระห่ำ นำทีมโดย หลิวชิงหวิน เฉินเสี่ยวชุน พร้อมเสียงพากย์ต้นฉบับจาก พันธมิตร

    [IMG][/IMG]

    General
    Complete name : D:\ระห่ำตัดระห่ำ.mp4
    Format : MPEG-4
    Format profile : Base Media / Version 2
    Codec ID : mp42 (mp42/mp41)
    File size : 1.63 GiB
    Duration : 1 h 26 min
    Overall bit rate mode : Variable
    Overall bit rate : 2 691 kb/s
    Encoded date : UTC 2017-04-14 21:00:14
    Tagged date : UTC 2017-04-14 21:01:22
    ฉTIM : 00:00:00:00
    ฉTSC : 25
    ฉTSZ : 1

    Video
    ID : 1
    Format : AVC
    Format/Info : Advanced Video Codec
    Format profile : [email protected]
    Format settings, CABAC : Yes
    Format settings, ReFrames : 3 frames
    Codec ID : avc1
    Codec ID/Info : Advanced Video Coding
    Duration : 1 h 26 min
    Bit rate : 2 498 kb/s
    Width : 720 pixels
    Height : 576 pixels
    Display aspect ratio : 1.85:1
    Frame rate mode : Constant
    Frame rate : 25.000 FPS
    Standard : PAL
    Color space : YUV
    Chroma subsampling : 4:2:0
    Bit depth : 8 bits
    Scan type : Interlaced
    Scan type, store method : Separated fields
    Scan order : Bottom Field First
    Bits/(Pixel*Frame) : 0.241
    Stream size : 1.51 GiB (93%)
    Language : English
    Encoded date : UTC 2017-04-14 21:00:15
    Tagged date : UTC 2017-04-14 21:00:15
    Color range : Limited
    Color primaries : BT.601 PAL
    Transfer characteristics : BT.470 System B, BT.470 System G
    Matrix coefficients : BT.601

    Audio
    ID : 2
    Format : AAC
    Format/Info : Advanced Audio Codec
    Format profile : LC
    Codec ID : 40
    Duration : 1 h 26 min
    Source duration : 1 h 26 min
    Bit rate mode : Variable
    Bit rate : 192 kb/s
    Maximum bit rate : 300 kb/s
    Channel(s) : 2 channels
    Channel positions : Front: L R
    Sampling rate : 48.0 kHz
    Frame rate : 46.875 FPS (1024 spf)
    Compression mode : Lossy
    Stream size : 117 MiB (7%)
    Source stream size : 117 MiB (7%)
    Language : ไทย VCD 2.0
    Encoded date : UTC 2017-04-14 21:00:15
    Tagged date : UTC 2017-04-14 21:00:15


    http://cornfile.com/6wp59qfexvbi
    แก้ไขครั้งล่าสุดโดย galamung : 12-19-2017 เมื่อ 12:32 PM

  7. #17
    Senior Member
    สมัครเมื่อ
    Sep 2014
    โพสต์
    2,884
    Thanks
    2
    Thanked 0 Times in 0 Posts
    ขอบคุณมากครับ

  8. #18
    Senior Member
    สมัครเมื่อ
    May 2012
    โพสต์
    220
    Thanks
    0
    Thanked 0 Times in 0 Posts
    มีแต่หนังเก่าเสียงต้นฉบับดีๆทั้งนั้น

  9. #19
    Senior Member
    สมัครเมื่อ
    Jun 2014
    โพสต์
    1,340
    Thanks
    0
    Thanked 0 Times in 0 Posts
    ขอบคุณครับ

  10. #20
    Member
    สมัครเมื่อ
    Nov 2012
    โพสต์
    96
    Thanks
    0
    Thanked 4 Times in 3 Posts

    Angry [จีน] [dvdrip] ผีกัดอย่ากัดตอบ ตอน ผีรอบจัดกัดหมู่ : Encounters Of The Spooky Kind 2 (1990) : [เสียงไทย 2.0,อินทรีต้นฉบับ]




    ผีกัดอย่ากัดตอบ ตอน ผีรอบจัดกัดหมู่ ภาคที่ 6 ของหนังผีกัด ยังนำโดยอาจารย์ปราบผี หลินเจิ้นอิง ร่วมด้วย หงจินเป่า อินทรี ต้นฉบับเสียงฉบับฉายโรง (ขอบคุณเสียงไทยจากเว็ปเพื่อนบ้าน)

    [IMG][/IMG]
    General
    Complete name : D:\ผีกัดอย่ากัดตอบ 6.mp4
    Format : MPEG-4
    Format profile : Base Media / Version 2
    Codec ID : mp42 (mp42/mp41)
    File size : 2.31 GiB
    Duration : 1 h 34 min
    Overall bit rate mode : Variable
    Overall bit rate : 3 492 kb/s
    Encoded date : UTC 2017-05-03 21:17:13
    Tagged date : UTC 2017-05-03 21:18:55
    ฉTIM : 00:00:00:00
    ฉTSC : 25
    ฉTSZ : 1

    Video
    ID : 1
    Format : AVC
    Format/Info : Advanced Video Codec
    Format profile : [email protected]
    Format settings, CABAC : Yes
    Format settings, ReFrames : 3 frames
    Codec ID : avc1
    Codec ID/Info : Advanced Video Coding
    Duration : 1 h 34 min
    Bit rate : 3 299 kb/s
    Width : 720 pixels
    Height : 576 pixels
    Display aspect ratio : 1.85:1
    Frame rate mode : Constant
    Frame rate : 25.000 FPS
    Standard : PAL
    Color space : YUV
    Chroma subsampling : 4:2:0
    Bit depth : 8 bits
    Scan type : Interlaced
    Scan type, store method : Separated fields
    Scan order : Bottom Field First
    Bits/(Pixel*Frame) : 0.318
    Stream size : 2.18 GiB (94%)
    Language : English
    Encoded date : UTC 2017-05-03 21:17:13
    Tagged date : UTC 2017-05-03 21:17:13
    Color range : Limited
    Color primaries : BT.601 PAL
    Transfer characteristics : BT.470 System B, BT.470 System G
    Matrix coefficients : BT.601

    Audio
    ID : 2
    Format : AAC
    Format/Info : Advanced Audio Codec
    Format profile : LC
    Codec ID : 40
    Duration : 1 h 34 min
    Source duration : 1 h 34 min
    Bit rate mode : Variable
    Bit rate : 192 kb/s
    Maximum bit rate : 300 kb/s
    Channel(s) : 2 channels
    Channel positions : Front: L R
    Sampling rate : 48.0 kHz
    Frame rate : 46.875 FPS (1024 spf)
    Compression mode : Lossy
    Stream size : 128 MiB (5%)
    Source stream size : 128 MiB (5%)
    Language : ไทย อินทรี
    Encoded date : UTC 2017-05-03 21:17:13
    Tagged date : UTC 2017-05-03 21:17:13


    http://cornfile.com/4rpds5f7g5g6

    เพิ่มไฟล์ HDTV 1080 3 GB
    http://cornfile.com/3njcdje45jsw
    แก้ไขครั้งล่าสุดโดย galamung : 06-03-2018 เมื่อ 08:09 AM

+ ตอบกลับกระทู้
หน้า 2 จากทั้งหมด 22 หน้า หน้าแรกหน้าแรก 1 2 3 4 12 ... หน้าสุดท้ายหน้าสุดท้าย

ข้อมูลกระทู้

Users Browsing this Thread

ในขณะนี้มี 1 ท่านดูกระทู้อยู่. (0 สมาชิกและ 1 ผู้เยี่ยมชม)

     

กฎการโพสต์ข้อความ

  • ท่าน ไม่สามารถ ตั้งกระทู้ใหม่ได้
  • ท่าน ไม่สามารถ ตอบกระทู้ได้
  • ท่าน ไม่สามารถ แนบไฟล์ได้
  • ท่าน ไม่สามารถ แก้ไขข้อความโพสต์ได้
  • BB code สถานะ เปิด
  • Smilies สถานะ เปิด
  • [IMG] สถานะ เปิด
  • HTML สถานะ ปิด