+ ตอบกลับกระทู้
สรุปผลการค้นหา 1 ถึง 3 จากทั้งหมด 3
  1. #1
    Administrators รูปส่วนตัว Duckload.us
    สมัครเมื่อ
    Dec 2010
    โพสต์
    122,626
    Thanks
    7
    Thanked 127,927 Times in 57,012 Posts

    Question [ฝรั่ง]-[*หนังดีไม่ควรพลาด+ซับไทยคมชัดสะใจ*] Forrest Gump (1994) / ฟอร์เรสท์ กัมพ์ อัจฉริยะปัญญานิ่ม [เสียงอังกฤษ DTS+พากย์ไทย 5.1+English Commentary]-[บรรยายไทย+อังกฤษ] {พร้อมซับไทยทำใหม่ คมชัดถึงใจ}-Remux.DTS.1080p. [Modified]-[พากย์ไทย]

    [ฝรั่ง]-[หนังดี ไม่ควรพลาด ซับไทยคมชัดสะใจ] Forrest Gump (1994) / ฟอร์เรสท์ กัมพ์ อัจฉริยะปัญญานิ่ม [Remux.DTS.1080p.CtHts]-[Modified]-[เสียงอังกฤษ DTS+พากย์ไทย 5.1+English Commentary]-[บรรยายไทย+อังกฤษ] {พร้อมซับไทยทำใหม่ คมชัดถึงใจ}



    ทอม แฮงส์ ถ่ายทอดบทบาทฟอร์เรสท์อย่างน่าตะลึง ในหนังที่ได้รับการยกย่องเรื่องนี้
    จากฝีมือผู้กำกับโรเบิร์ต เชเม็คคิส ซึ่งพุ่งขึ้นสู่ทำเนียบประวัติศาสตร์หนังทำเงิน
    และ.จับหัวใจผู้ชมอย่างไม่มีภาพยนตร์เรื่องใดเหมือน ในช่วงสามทศวรรษแห่งความโกลาหล
    ฟอร์เรสท์ดำเนินชีวิตผ่านกระแสช่วงเหตุการณ์ต่างๆเที ่ผันเขาจากคนร่างกายพิการไปเป็นดาราอเมริกันฟุตบอล
    จากวีรบุรุษในสงครามเวียดนาม เป็นเศรษฐีธุรกิจเรือกุ้ง จากเกียรติยศแห่งทำเนียบขาวไปสู่อ้อมกอดของผู้ที่เขา มีใจรักจริง
    ฟอร์เรสท์เป็นแบบอย่างรูปธรรมแห่งยุค จิตใจของเขาตระหนักต่อสิ่งที่เผชิญอยู่ แม้ไอคิวอันจำกัดของตัวเองไม่อำนวย
    ศีลธรรมของเขาไม่เคยคลอนแคลน ชัยชนะทั้งหลายของเขากลายเป็นแรงบันดาลใจแก่เราทุกคน .

    Format : Matroska
    File size : 14.5 GiB
    Duration : 2h 22mn
    Overall bit rate : 14.6 Mbps
    Movie name : Forrest.Gump.1994.BluRay.1080p.DTS.x264.CtHts - PORSC
    Encoded date : UTC 2012-10-23 03:44:10
    Writing application : mkvmerge v4.2.0 ( No Talking ) built on Jul 28 2010 18:38:23
    Writing library : libebml v1.0.0 + libmatroska v1.0.0

    Video
    ID : 1
    Format : AVC
    Format/Info : Advanced Video Codec
    Format profile : [email protected]
    Format settings, CABAC : Yes
    Format settings, ReFrames : 4 frames
    Muxing mode : Container [email protected]
    Codec ID : V_MPEG4/ISO/AVC
    Duration : 2h 22mn
    Bit rate : 12.4 Mbps
    Nominal bit rate : 12.7 Mbps
    Width : 1 920 pixels
    Height : 816 pixels
    Display aspect ratio : 2.35:1
    Frame rate : 23.976 fps
    Resolution : 8 bits
    Colorimetry : 4:2:0
    Scan type : Progressive
    Bits/(Pixel*Frame) : 0.331
    Stream size : 12.3 GiB (85%)
    Title : Forrest.Gump.1994.BluRay.1080p.DTS.x264.CtHts - PORSC
    Writing library : x264 core 77 r1292M e381f6d
    Encoding settings : cabac=1 / ref=4 / deblock=1:-3:-3 / analyse=0x3:0x113 / me=umh / subme=10 / psy=1 / psy_rd=1.0:0.1 / mixed_ref=1 / me_range=32 / chroma_me=1 / trellis=2 / 8x8dct=1 / cqm=2 / deadzone=21,11 / chroma_qp_offset=-2 / threads=12 / nr=0 / decimate=0 / mbaff=0 / constrained_intra=0 / bframes=4 / b_pyramid=0 / b_adapt=2 / b_bias=0 / direct=2 / wpredb=1 / keyint=250 / keyint_min=25 / scenecut=40 / rc_lookahead=50 / rc=2pass / mbtree=1 / bitrate=12702 / ratetol=1.0 / qcomp=0.60 / qpmin=10 / qpmax=51 / qpstep=4 / cplxblur=20.0 / qblur=0.5 / vbv_maxrate=50000 / vbv_bufsize=50000 / ip_ratio=1.40 / aq=1:1.00

    Audio #1
    ID : 2
    Format : DTS
    Format/Info : Digital Theater Systems
    Codec ID : A_DTS
    Duration : 2h 22mn
    Bit rate mode : Constant
    Bit rate : 1 510 Kbps
    Channel(s) : 6 channels
    Channel positions : Front: L C R, Side: L R, LFE
    Sampling rate : 48.0 KHz
    Resolution : 24 bits
    Stream size : 1.50 GiB (10%)
    Title : English DTS-HD MA 5.1

    Audio #2
    ID : 3
    Format : AC-3
    Format/Info : Audio Coding 3
    Codec ID : A_AC3
    Duration : 2h 22mn
    Bit rate mode : Constant
    Bit rate : 192 Kbps
    Channel(s) : 2 channels
    Channel positions : Front: L R
    Sampling rate : 48.0 KHz
    Stream size : 195 MiB (1%)
    Title : Thai. AC3 DVD Master
    Language : Thai

    Audio #3
    ID : 4
    Format : AC-3
    Format/Info : Audio Coding 3
    Format profile : Dolby Digital
    Codec ID : A_AC3
    Duration : 2h 22mn
    Bit rate mode : Constant
    Bit rate : 224 Kbps
    Channel(s) : 2 channels
    Channel positions : Front: L R
    Sampling rate : 48.0 KHz
    Stream size : 228 MiB (2%)
    Title : English Commentary

    Text #1
    ID : 5
    Format : VobSub
    Codec ID : S_VOBSUB
    Codec ID/Info : The same subtitle format used on DVDs
    Title : Thai 480p DVD Master
    Language : Thai

    Text #2
    ID : 6
    Format : VobSub
    Codec ID : S_VOBSUB
    Codec ID/Info : The same subtitle format used on DVDs
    Title : Thai 1080p
    Language : Thai

    Text #3
    ID : 7
    Format : VobSub
    Codec ID : S_VOBSUB
    Codec ID/Info : The same subtitle format used on DVDs
    Title : Thai 1080p Out
    Language : Thai

    Text #4
    ID : 8
    Format : VobSub
    Codec ID : S_VOBSUB
    Codec ID/Info : The same subtitle format used on DVDs
    Title : Thai 1080p Yellow
    Language : Thai

    Text #5
    ID : 9
    Format : UTF-8
    Codec ID : S_TEXT/UTF8
    Codec ID/Info : UTF-8 Plain Text
    Title : English


    http://cornfile.com/wr3uglr2e1qs fix

    http://www.filecondo.com/dl.php?f=IB1740aMW9xn

  2. The Following 2 Users Say Thank You to Duckload.us For This Useful Post:

    agg001 (01-13-2021), bigbang06 (06-09-2017)

  3. #2
    Junior Member
    สมัครเมื่อ
    Apr 2016
    โพสต์
    4
    Thanks
    0
    Thanked 0 Times in 0 Posts
    ลง mekafile ด้วยได้ไหมครับ

  4. #3
    Senior Member
    สมัครเมื่อ
    Jan 2011
    โพสต์
    768
    Thanks
    1,044
    Thanked 0 Times in 0 Posts
    ขอบคุณครับ

+ ตอบกลับกระทู้

ข้อมูลกระทู้

Users Browsing this Thread

ในขณะนี้มี 1 ท่านดูกระทู้อยู่. (0 สมาชิกและ 1 ผู้เยี่ยมชม)

     

กฎการโพสต์ข้อความ

  • ท่าน ไม่สามารถ ตั้งกระทู้ใหม่ได้
  • ท่าน ไม่สามารถ ตอบกระทู้ได้
  • ท่าน ไม่สามารถ แนบไฟล์ได้
  • ท่าน ไม่สามารถ แก้ไขข้อความโพสต์ได้
  • BB code สถานะ เปิด
  • Smilies สถานะ เปิด
  • [IMG] สถานะ เปิด
  • HTML สถานะ ปิด