+ ตอบกลับกระทู้
สรุปผลการค้นหา 1 ถึง 3 จากทั้งหมด 3
  1. #1
    Administrators รูปส่วนตัว Duckload.us
    สมัครเมื่อ
    Dec 2010
    โพสต์
    149,921
    Thanks
    7
    Thanked 156,898 Times in 68,561 Posts

    Lightbulb [จีน] [พันปักษา] Legend of Lu Zhen ตำนานลู่เจิน ปฐมอัครเสนาบดีหญิง [ตอนที่ 1-59 จบ] [EncodeTV.H.264.MP4.360P.] [พากย์ จีน] [บรรยาย ไทย]

    [จีน] [พันปักษา] Legend of Lu Zhen ตำนานลู่เจิน ปฐมอัครเสนาบดีหญิง [ตอนที่ 1-59 จบ] [EncodeTV.H.264.MP4.360P.] [พากย์ จีน] [บรรยาย ไทย]



    Legend of Lu Zhen ตำนานลู่เจิน ปฐมอัครเสนาบดีหญิง
    Title: 陆 贞 传 奇 / Lu Zhen Chuan Qi
    English title: Female Prime Minister
    Also known as: 女 相 / Nv Xiang
    Genre: Period drama, romance
    Episodes: 59
    Broadcast network: Hunan TV
    Theme song: Zhen Xi (珍 惜 ) Cherish by Li Yu Chun
    เรื่องย่อ
    เรื่องราวชีวิตของ ลู่เจินฉวนฉี เธอเป็นอัครเสนาบดีหญิงคนแรกและคนเดียวของแผ่นดินจีน ในสมัยราชวงศ์เหนือใต้ ลู่ เจิน นั้นเดิมมาจากครอบครัวคหบดี ภายหลังจากบิดาเสียชีวิต มารดาเลี้ยงจ้างวานนักฆ่ามาสังหาร นางจึงต้องหลบหนี ขณะที่หนีการตามล่านั้นก็ได้พบกับ องค์รัชทายาท เกา จั้น ซึ่งขณะนั้นองค์ชาย เกา จั้น ปิดปังฐานะที่แท้จริงเพื่อหนีจาการตามล่าด้วยเหมือนก ัน ทั้งสองมีความรักให้กันและกัน แต่ก็มีอันทำให้ทั้งสองต้องแยกจากกัน หลังจากนั้น ลู่ เจิน ก็เข้าไปเป็นนางกำนัลในวัง แต่ด้วยความสามารถที่โดดเด่นทำให้ได้เข้ารับราชการใน สมัยจักรพรรดิเกาเหยี่ยน(เสี้ยวเจา)
    องค์รัชทายาท เกา จั้น โดยฐานะจากบุตรชายคนโตของฮองเฮาคนแรกมีสิทธิ์ขึ้นครอ งราช แต่เพราะแม่เลี้ยงหรือฮองเฮาคนใหม่ได้วางแผนให้ลูกชา ยของตนขึ้นครองราชแทนจึงสั่งฆ่า องค์ชาย เกา จั้น ทำให้องค์ชาย เกา จั้น ต้องหนีจากการตามล่า...แต่เพราะได้ ลู่ เจิน ช่วยชีวิตเอาไว้ และเมื่อองค์ชายได้ใช้เวลาอยู่กับลู่ เจิน ก็ตกหลุ่มรักเธอแต่เพราะคนร้ายที่ตามล่าพระองค์ ทำให้พระองค์ต้องพลัดพรากจาก ลู่ เจิน และพระองค์คิดว่า ลู่ เจิน ได้ตายไปแล้ว องค์ชาย เกา จั้น จึงกลับเข้าวังเพื่อแก้แค้นให้กับ ลู่ เจิน
    ทำให้ทั้งสองมาพบกันอีกครั้งในวังหลวงแต่ความรักครั้ งนี้เต็มไปด้วยอุปสรรคนานัปการทั้งยศฐาบรรดาศักดิ์ และความอิจฉาริษยาของผู้คนที่รายล้อม แม้ในท้ายที่สุด ลู่ เจิน จะใช้ความสามารถและสติปัญญาสนับสนุนให้องค์รัชทายาทเ กา จั้น ขึ้นครองราชย์ได้สำเร็จ แต่ด้วยหลายๆ เหตุผล ทั้งคู่ไม่อาจครองคู่กัน ลู่ เจิน จึงทุ่มเทชีวิตให้กับงาน โดยตำแหน่งสุดท้ายของนางคือ อัครเสนาบดีในองค์จักรพรรดิเกา เหว่ย (บุตรของเกา จั้น)

    นักแสดงนำ
    Zhao Li Ying as Lu Zhen
    Chen Xiao as Gao Zhan
    Qiao Ren Liang as Gao Yan
    Yang Rong as Xiao Guan Yin
    Wu Ying Jie as He Dan Niang
    Tang Yi Xin as Shen Bi
    Maggie Cheung as Lou Qing Qiang
    Liu Xue Hua as Lou Zhao Jun
    Bai Shan as Yu Jiu Lu
    Wang Lin as Madam Zhao
    Yue Yao Li as Lu Jia
    Li Ji Chun (李 继 春 ) as Shen Jia Yan
    Xi Xue as Shen Jia Min
    Jiang Hong as Wang Xuan
    screen shot



    ตัวอย่างรายละเอียดไฟล์
    General
    Complete name : Y:siambit.tv1downloadLegend of Lu Zhen µ Ó ¹ Ò ¹ Å Ù è à ¨ Ô ¹ » ° Á Í Ñ ¤ Ã à Ê ¹ Ò º ´ Õ Ë ­ Ô µ Ó ¹ Ò ¹ Å Ù è à ¨ Ô ¹ [« Ñ º ä · Â ] EP1_59.mp4
    Format : MPEG-4
    Format profile : Base Media
    Codec ID : isom
    File size : 146 MiB
    Duration : 33mn 0s
    Overall bit rate : 619 Kbps
    Writing application : Lavf54.63.104
    Video
    ID : 1
    Format : AVC
    Format/Info : Advanced Video Codec
    Format profile : [email protected]
    Format settings, CABAC : Yes
    Format settings, ReFrames : 3 frames
    Format settings, GOP : M=1, N=2
    Codec ID : avc1
    Codec ID/Info : Advanced Video Coding
    Duration : 33mn 0s
    Bit rate mode : Variable
    Bit rate : 487 Kbps
    Width : 640 pixels
    Height : 360 pixels
    Display aspect ratio : 16:9
    Frame rate mode : Constant
    Frame rate : 25.000 fps
    Color space : YUV
    Chroma subsampling : 4:2:0
    Bit depth : 8 bits
    Scan type : Progressive
    Bits/(Pixel*Frame) : 0.085
    Stream size : 115 MiB (79%)
    Audio
    ID : 2
    Format : AAC
    Format/Info : Advanced Audio Codec
    Format profile : LC
    Codec ID : 40
    Duration : 33mn 0s
    Bit rate mode : Constant
    Bit rate : 126 Kbps
    Channel(s) : 2 channels
    Channel positions : Front: L R
    Sampling rate : 44.1 KHz
    Compression mode : Lossy
    Stream size : 29.7 MiB (20%)
    เครดิตไฟล์คุณพันปักษา


    http://www.filecondo.com/dl.php?f=644ae21DawlP

  2. #2
    Senior Member รูปส่วนตัว mena
    สมัครเมื่อ
    Jun 2011
    โพสต์
    119
    Thanks
    1
    Thanked 0 Times in 0 Posts
    ขอบคุณค่ะแอดมิน

  3. #3
    Senior Member
    สมัครเมื่อ
    Jun 2015
    โพสต์
    145
    Thanks
    1
    Thanked 0 Times in 0 Posts
    ขอบคุณครับ

+ ตอบกลับกระทู้

ข้อมูลกระทู้

Users Browsing this Thread

ในขณะนี้มี 1 ท่านดูกระทู้อยู่. (0 สมาชิกและ 1 ผู้เยี่ยมชม)

     

กฎการโพสต์ข้อความ

  • ท่าน ไม่สามารถ ตั้งกระทู้ใหม่ได้
  • ท่าน ไม่สามารถ ตอบกระทู้ได้
  • ท่าน ไม่สามารถ แนบไฟล์ได้
  • ท่าน ไม่สามารถ แก้ไขข้อความโพสต์ได้
  • BB code สถานะ เปิด
  • Smilies สถานะ เปิด
  • [IMG] สถานะ เปิด
  • HTML สถานะ ปิด