+ ตอบกลับกระทู้
สรุปผลการค้นหา 1 ถึง 3 จากทั้งหมด 3
  1. #1
    Administrators รูปส่วนตัว Duckload.us
    สมัครเมื่อ
    Dec 2010
    โพสต์
    108,452
    Thanks
    7
    Thanked 113,385 Times in 52,324 Posts

    Angry [ฝรั่ง]-The Twilight Saga แวมไพร์ ทไวไลท์ ภาค 1-4.2 (2008-2012) 1080p-DTS-Blu ray-AVC-H.264-AAA-[พากย์ไทย บรรยายไทย]



    The Twilight Saga 1 (2008) 1080p
    พากย์ อังกฤษ DTS พากย์ อังกฤษ ไทย AC-3 บรรยาย อังกฤษ ไทย
    SS = https://www.mpic.ws/image/5XaAd

    เบลล่า สวาน (คริสเท็น สจ๊วต) เป็นเด็กสาวที่แปลกแยก และไม่เคยเข้ากับเด็กสาวคนอื่นๆ ได้ในโรงเรียนมัธยมที่ฟีนิกส์ เมื่อแม่ของเธอแต่งงานใหม่
    เธอจึงถูกส่งกลับไปอยู่กับพ่อในเมืองที่มีฝนตกตลอดเว ลาอย่างฟอร์ค ในรัฐวอชิงตัน เธอไม่คิดว่ามันจะมีอะไรเปลี่ยนไปมากนัก
    กระทั่งเธอพบกับหนุ่มรูปงามที่ลึกลับนามว่า เอ็ดเวิร์ด (โรเบิร์ต แพททินสัน) เขาเป็นผู้ชายในแบบที่เธอไม่เคยพบมาก่อน เขาทั้งฉลาดและ.มีความสามารถ
    นอกจากนั้นเขาก็ยังมองทะลุผ่านหัวใจเธอได้ ในไม่ช้า เบลล่า และเอ็ดเวิร์ด ก็ต่างตกหลุมรักกัน โดยเอ็ดเวิร์ดสามารถวิ่งได้เร็วปานเสือภูเขา เขาสามารถหยุดรถที่พุ่งเข้ามาหาด้วยมือเปล่า
    และเขาก็ยังไม่แก่ลงเลยสักนิดเดียวตั้งแต่ปี 1918 ใช่แล้ว เขาเป็นอมตะ แต่เขาไม่มีเขี้ยวและไม่ดื่มเลือดมนุษย์ เพราะเอ็ดเวิร์ดและครอบครัวของเขา
    เป็นกลุ่มแวมไพร์ที่แยกตัวออกมาจากแวมไพร์ทั่วไป สำหรับเขาแล้วเบลล่าคือเผู้หญิงที่รอคอยมากว่า 90 ปี เธอคือเรักแท้ ยิ่งพวกเขาทั้งคู่เข้าใกล้กันมากเท่าไร
    เอ็ดเวิร์ดก็ยิ่งต้องควบคุมความต้องการดื่มเลือดเธอ ที่อาจทำให้เขาเกิดคลุ้มคลั่งได้ และเมื่อเจมส์ (แคม จิกานเด็ท) ลอเรนส์ (อีดี้ กาเทกิ) และวิคตอเรีย (เรเชล เลอเฟอ)
    ซึ่งเป็นศัตรูคู่อาฆาตของตระกูลคัลเลน เดินทางมาถึงเมืองฟอร์ค และเป้าหมายคือเเบลล่า พวกเขาจะทำเช่นไร!!!

    General
    Unique ID : 171621938400893573863499622716478405041 (0x811D2EDAEC65211B8306EB10DCA539B1)
    Complete name : The Twilight Saga 1 (2008) 1080p.mkv
    Format : Matroska
    Format version : Version 4 / Version 2
    File size : 9.55 GiB
    Duration : 2h 1mn
    Overall bit rate : 11.2 Mbps
    Encoded date : UTC 2016-11-25 12:58:47
    Writing application : mkvmerge v8.2.0 ( World of Adventure ) 64bit
    Writing library : libebml v1.3.1 + libmatroska v1.4.2
    DURATION : 02:01:50.336000000
    NUMBER_OF_FRAMES : 228448
    NUMBER_OF_BYTES : 584826880
    _STATISTICS_WRITING_APP : mkvmerge v8.2.0 ( World of Adventure ) 64bit
    _STATISTICS_WRITING_DATE_UTC : 2016-11-25 12:58:47
    _STATISTICS_TAGS : BPS DURATION NUMBER_OF_FRAMES NUMBER_OF_BYTES

    Video
    ID : 1
    Format : AVC
    Format/Info : Advanced Video Codec
    Format profile : [email protected]
    Format settings, CABAC : Yes
    Format settings, ReFrames : 5 frames
    Codec ID : V_MPEG4/ISO/AVC
    Duration : 2h 1mn
    Bit rate : 8 741 Kbps
    Width : 1 920 pixels
    Height : 800 pixels
    Display aspect ratio : 2.40:1
    Frame rate mode : Constant
    Frame rate : 23.976 fps
    Color space : YUV
    Chroma subsampling : 4:2:0
    Bit depth : 8 bits
    Scan type : Progressive
    Bits/(Pixel*Frame) : 0.237
    Stream size : 7.26 GiB (76%)
    Writing library : x264 core 67 r1125M 10d6ef0
    Encoding settings : cabac=1 / ref=5 / deblock=1:-1:-1 / analyse=0x3:0x113 / me=umh / subme=7 / psy_rd=1.0:0.0 / mixed_ref=1 / me_range=16 / chroma_me=1 / trellis=2 / 8x8dct=1 / cqm=0 / deadzone=21,11 / chroma_qp_offset=-2 / threads=6 / nr=0 / decimate=1 / mbaff=0 / bframes=3 / b_pyramid=0 / b_adapt=2 / b_bias=0 / direct=3 / wpredb=1 / keyint=250 / keyint_min=25 / scenecut=40 / rc=2pass / bitrate=8741 / ratetol=1.0 / qcomp=0.60 / qpmin=10 / qpmax=51 / qpstep=4 / cplxblur=20.0 / qblur=0.5 / vbv_maxrate=50000 / vbv_bufsize=50000 / ip_ratio=1.40 / pb_ratio=1.30 / aq=1:1.00
    Language : English
    Default : Yes
    Forced : No

    Audio #1
    ID : 2
    Format : AC-3
    Format/Info : Audio Coding 3
    Mode extension : CM (complete main)
    Format settings, Endianness : Big
    Codec ID : A_AC3
    Duration : 2h 1mn
    Bit rate mode : Constant
    Bit rate : 320 Kbps
    Channel(s) : 6 channels
    Channel positions : Front: L C R, Side: L R, LFE
    Sampling rate : 48.0 KHz
    Compression mode : Lossy
    Delay relative to video : 2s 823ms
    Stream size : 279 MiB (3%)
    Title : Thai AC-3
    Language : Thai
    Default : Yes
    Forced : Yes

    Audio #2
    ID : 3
    Format : DTS
    Format/Info : Digital Theater Systems
    Mode : 16
    Format settings, Endianness : Big
    Codec ID : A_DTS
    Duration : 2h 1mn
    Bit rate mode : Constant
    Bit rate : 1 509 Kbps
    Channel(s) : 6 channels
    Channel positions : Front: L C R, Side: L R, LFE
    Sampling rate : 48.0 KHz
    Bit depth : 24 bits
    Compression mode : Lossy
    Stream size : 1.29 GiB (13%)
    Title : Eng DTS
    Language : English
    Default : No
    Forced : No

    Audio #3
    ID : 4
    Format : AC-3
    Format/Info : Audio Coding 3
    Mode extension : CM (complete main)
    Format settings, Endianness : Big
    Codec ID : A_AC3
    Duration : 2h 1mn
    Bit rate mode : Constant
    Bit rate : 640 Kbps
    Channel(s) : 6 channels
    Channel positions : Front: L C R, Side: L R, LFE
    Sampling rate : 48.0 KHz
    Compression mode : Lossy
    Stream size : 558 MiB (6%)
    Title : Eng AC-3
    Language : English
    Default : No
    Forced : No

    Text #1
    ID : 5
    Format : VobSub
    Muxing mode : zlib
    Codec ID : S_VOBSUB
    Codec ID/Info : Picture based subtitle format used on DVDs
    Title : Thai
    Language : Thai
    Default : No
    Forced : No

    Text #2
    ID : 6
    Format : VobSub
    Muxing mode : zlib
    Codec ID : S_VOBSUB
    Codec ID/Info : Picture based subtitle format used on DVDs
    Title : Thai
    Language : Thai
    Default : No
    Forced : No

    Text #3
    ID : 7
    Format : VobSub
    Muxing mode : zlib
    Codec ID : S_VOBSUB
    Codec ID/Info : Picture based subtitle format used on DVDs
    Title : Eng
    Language : English
    Default : No
    Forced : No

    Text #4
    ID : 8
    Format : UTF-8
    Codec ID : S_TEXT/UTF8
    Codec ID/Info : UTF-8 Plain Text
    Title : Eng SRT
    Language : English
    Default : No
    Forced : No

    Text #5
    ID : 9
    Format : VobSub
    Muxing mode : zlib
    Codec ID : S_VOBSUB
    Codec ID/Info : Picture based subtitle format used on DVDs
    Title : Chinese
    Language : Chinese
    Default : No
    Forced : No

    Menu
    00:00:00.000 : en:00:00:00.000
    00:05:40.500 : en:00:05:40.500
    00:12:02.833 : en:00:12:02.833
    00:20:48.583 : en:00:20:48.583
    00:24:51.708 : en:00:24:51.708
    00:29:45.958 : en:00:29:45.958
    00:36:06.750 : en:00:36:06.750
    00:41:36.167 : en:00:41:36.167
    00:47:24.083 : en:00:47:24.083
    00:51:23.000 : en:00:51:23.000
    00:58:00.500 : en:00:58:00.500
    01:07:11.625 : en:01:07:11.625
    01:11:48.167 : en:01:11:48.167
    01:17:10.000 : en:01:17:10.000
    01:21:43.958 : en:01:21:43.958
    01:31:12.250 : en:01:31:12.250
    01:35:38.667 : en:01:35:38.667
    01:42:30.833 : en:01:42:30.833
    01:46:05.125 : en:01:46:05.125
    01:49:56.167 : en:01:49:56.167

    xxxxxxxxxxxxxxxxxxxxxxxxxxxxxxxxxxxxxxxxxxxxxxxxxx xxxxxxx

    The Twilight Saga 2 Newmoon (2009) 1080p
    พากย์ อังกฤษ DTS พากย์ อังกฤษ ไทย AC-3 บรรยาย อังกฤษ ไทย
    SS = https://www.mpic.ws/image/5TCWa

    เบลล่า(คริสเต็น สจ๊วต) จัดงานวันเกิดครบรอบ 18 ปี เมื่อเธอถูกกระดาษบาดนิ้วระหว่างการแกะห่อของขวัญ แจสเปอร์ ก็พุ่งเข้าไปทำร้ายเธออย่างบ้าคลั่ง
    ซึ่งจากเหตุการณ์นี้ ก็ทำให้ เอ็ดเวิร์ด (โรเบิร์ต แพทินสัน) และครอบครัว ตัดสินใจเดินทางออกจากเมืองฟอร์ค เพื่อที่จะทำให้เบลล่าปลอดภัย
    อย่างไรก็ตาม มันก็ทำให้เธอรู้สึกหดหู่ และพยายามหาความอบอุ่นจาก เจค็อบ (เทย์เลอร์ เลาท์เนอร์) เพื่อนสนิทของเธอ เบลล่าและเจค็อบ ได้พัฒนาความรู้สึกที่ดีต่อกันและกัน
    ในขณะเดียวกัน เบลล่าเองก็เริ่มที่จะหากิจกรรมท้าทายใหม่ๆ เช่นการขี่มอเตอร์ไซค์หรือการกระโดดน้ำจากหน้าผา เพื่อช่วยเตือนสติถึง ความตื่นเต้นเมื่อตัวเองอยู่ใกล้กับ เอ็ดเวิร์ด
    และในขณะเดียวกันเธอเองก็ค้นพบว่า เจค็อบคือเมนุษย์หมาป่า เขาและผองเพื่อนเผ่าพันธุ์หมาป่าก็ช่วยกันปกป้องเธอ จากการตามล้างแค้นของ วิคตอเรีย แวมไพร์สาว
    ผู้ซึ่งเจมส์ คู่รักของเธอถูกสังหารโดยครอบครัวคัลเลน จากการสื่อสารที่ผิดพลาด ทำให้ เอ็ดเวิร์ด คิดว่า เบลล่าเสียชีวิตแล้ว เขาจึงตัดสินใจเดินทางไป อิตาลี
    เพื่อกระตุ้นให้ "โวลตูรี่" ลัทธิผู้คุมกฏของเผ่าพันธ์แวมไพร์มอบความตายให้กับเข าเสีย ซึ่งเมื่อข่าวนี้รู้ไปถึงหูเบลล่า เธอและอลิซ จึงตัดสินใจรีบมุ่งหน้าไปอิตาลี
    เพื่อทำการยับยั้งก่อนที่ทุกอย่างจะสายเกินไป!!!

    General
    Unique ID : 219630663494465326475031204659274564839 (0xA53B53C04BEBB8F7AC8A1DEADEB1C4E7)
    Complete name : The Twilight Saga 2 Newmoon (2009) 1080p.mkv
    Format : Matroska
    Format version : Version 4 / Version 2
    File size : 11.6 GiB
    Duration : 2h 10mn
    Overall bit rate : 12.7 Mbps
    Encoded date : UTC 2016-10-15 04:00:36
    Writing application : mkvmerge v8.2.0 ( World of Adventure ) 64bit
    Writing library : libebml v1.3.1 + libmatroska v1.4.2
    DURATION : 02:09:24.253000000
    NUMBER_OF_FRAMES : 1622
    NUMBER_OF_BYTES : 46066
    _STATISTICS_WRITING_APP : mkvmerge v8.2.0 ( World of Adventure ) 64bit
    _STATISTICS_WRITING_DATE_UTC : 2016-10-15 04:00:36
    _STATISTICS_TAGS : BPS DURATION NUMBER_OF_FRAMES NUMBER_OF_BYTES

    Video
    ID : 1
    Format : AVC
    Format/Info : Advanced Video Codec
    Format profile : [email protected]
    Format settings, CABAC : Yes
    Format settings, ReFrames : 5 frames
    Codec ID : V_MPEG4/ISO/AVC
    Duration : 2h 10mn
    Bit rate : 10.5 Mbps
    Width : 1 920 pixels
    Height : 800 pixels
    Display aspect ratio : 2.40:1
    Frame rate mode : Constant
    Frame rate : 23.976 fps
    Color space : YUV
    Chroma subsampling : 4:2:0
    Bit depth : 8 bits
    Scan type : Progressive
    Bits/(Pixel*Frame) : 0.284
    Stream size : 9.35 GiB (81%)
    Writing library : x264 core 88 r1462 7fcffde
    Encoding settings : cabac=1 / ref=5 / deblock=1:-1:-1 / analyse=0x3:0x113 / me=umh / subme=7 / psy=1 / psy_rd=1.00:0.00 / mixed_ref=1 / me_range=16 / chroma_me=1 / trellis=2 / 8x8dct=1 / cqm=0 / deadzone=21,11 / fast_pskip=1 / chroma_qp_offset=-2 / threads=12 / sliced_threads=0 / nr=0 / decimate=1 / mbaff=0 / constrained_intra=0 / bframes=3 / b_pyramid=2 / b_adapt=2 / b_bias=0 / direct=3 / wpredb=1 / wpredp=2 / keyint=250 / keyint_min=25 / scenecut=40 / intra_refresh=0 / rc_lookahead=40 / rc=2pass / mbtree=1 / bitrate=10473 / ratetol=1.0 / qcomp=0.60 / qpmin=10 / qpmax=51 / qpstep=4 / cplxblur=20.0 / qblur=0.5 / vbv_maxrate=50000 / vbv_bufsize=50000 / ip_ratio=1.40 / aq=1:1.00
    Language : English
    Default : Yes
    Forced : Yes

    Audio #1
    ID : 2
    Format : AC-3
    Format/Info : Audio Coding 3
    Mode extension : CM (complete main)
    Format settings, Endianness : Big
    Codec ID : A_AC3
    Duration : 2h 10mn
    Bit rate mode : Constant
    Bit rate : 320 Kbps
    Channel(s) : 6 channels
    Channel positions : Front: L C R, Side: L R, LFE
    Sampling rate : 48.0 KHz
    Compression mode : Lossy
    Delay relative to video : 43ms
    Stream size : 299 MiB (3%)
    Title : Thai AC-3
    Language : Thai
    Default : Yes
    Forced : Yes

    Audio #2
    ID : 3
    Format : DTS
    Format/Info : Digital Theater Systems
    Mode : 16
    Format settings, Endianness : Big
    Codec ID : A_DTS
    Duration : 2h 10mn
    Bit rate mode : Constant
    Bit rate : 1 509 Kbps
    Channel(s) : 6 channels
    Channel positions : Front: L C R, Side: L R, LFE
    Sampling rate : 48.0 KHz
    Bit depth : 24 bits
    Compression mode : Lossy
    Delay relative to video : 1ms
    Stream size : 1.38 GiB (12%)
    Title : Eng DTS
    Language : English
    Default : No
    Forced : No

    Audio #3
    ID : 4
    Format : AC-3
    Format/Info : Audio Coding 3
    Mode extension : CM (complete main)
    Format settings, Endianness : Big
    Codec ID : A_AC3
    Duration : 2h 10mn
    Bit rate mode : Constant
    Bit rate : 384 Kbps
    Channel(s) : 6 channels
    Channel positions : Front: L C R, Side: L R, LFE
    Sampling rate : 48.0 KHz
    Compression mode : Lossy
    Delay relative to video : 24ms
    Stream size : 359 MiB (3%)
    Title : Eng AC-3
    Language : English
    Default : No
    Forced : No

    Text #1
    ID : 5
    Format : VobSub
    Muxing mode : zlib
    Codec ID : S_VOBSUB
    Codec ID/Info : Picture based subtitle format used on DVDs
    Title : Thai
    Language : Thai
    Default : No
    Forced : No

    Text #2
    ID : 6
    Format : VobSub
    Muxing mode : zlib
    Codec ID : S_VOBSUB
    Codec ID/Info : Picture based subtitle format used on DVDs
    Title : Thai
    Language : Thai
    Default : No
    Forced : No

    Text #3
    ID : 7
    Format : VobSub
    Muxing mode : zlib
    Codec ID : S_VOBSUB
    Codec ID/Info : Picture based subtitle format used on DVDs
    Title : Eng
    Language : English
    Default : No
    Forced : No

    Text #4
    ID : 8
    Format : UTF-8
    Codec ID : S_TEXT/UTF8
    Codec ID/Info : UTF-8 Plain Text
    Title : Eng SRT
    Language : English
    Default : No
    Forced : No

    Text #5
    ID : 9
    Format : VobSub
    Muxing mode : zlib
    Codec ID : S_VOBSUB
    Codec ID/Info : Picture based subtitle format used on DVDs
    Title : Chinese
    Language : Chinese
    Default : No
    Forced : No

    Menu
    00:00:00.000 : en:00:00:00.000
    00:11:03.996 : en:00:11:03.996
    00:19:58.488 : en:00:19:58.488
    00:28:17.487 : en:00:28:17.487
    00:35:40.847 : en:00:35:40.847
    00:42:14.990 : en:00:42:14.990
    00:47:10.035 : en:00:47:10.035
    00:54:11.581 : en:00:54:11.581
    00:58:44.354 : en:00:58:44.354
    01:04:39.750 : en:01:04:39.750
    01:09:13.149 : en:01:09:13.149
    01:15:58.804 : en:01:15:58.804
    01:20:11.223 : en:01:20:11.223
    01:27:44.550 : en:01:27:44.550
    01:34:11.103 : en:01:34:11.103
    01:42:49.496 : en:01:42:49.496
    01:51:09.954 : en:01:51:09.954
    02:00:17.376 : en:02:00:17.376

    xxxxxxxxxxxxxxxxxxxxxxxxxxxxxxxxxxxxxxxxxxxxxxxxxx xxxxxxx

    The Twilight Saga 3 Eclipse (2010) 1080p
    พากย์ อังกฤษ DTS พากย์ อังกฤษ ไทย AC-3 บรรยาย อังกฤษ ไทย
    SS = https://www.mpic.ws/image/5TlfF

    เมื่อ เบลล่าได้ให้คำมั่นแก่เจน แห่งกลุ่มโวลตูรี่ ที่ให้เอ็ดเวิร์ด เปลี่ยนเธอเป็นแวมไพร์
    เพื่อรักษาความลับของตระกลูคัลเลน และเผ่าพันธุ์แวมไพร์ไว้กับเธอตลอดไป แต่เอ็ดเวิร์ดกลับลังเลใจที่จะทำตามคำสัญญานั่น
    จนทำให้ทั้งคู่ต้องเผชิญกับการจู่โจมของแวมไพร์เพชฌฆ าตกลุ่มใหม่ที่มี วิคตอเรีย เป็นผู้สร้างพวกมันขึ้น ด้วยอันตรายที่คอยคุกคามเบลล่า เจคอบ
    และพ้องเพื่อนหมาป่าคอยวนเวียน และพิทักษ์เบลล่าตลอดวันและคืน จนทำให้ เจคอบ เผลอเผยความในใจที่มีต่อเบลล่าออกมา และเกือบต้องใช้ชีวิตตัวเองเพื่อพิทักษ์เบลล่า
    จากคมเขี้ยวของแวมไพร์กลุ่มนั้น!!!

    General
    Unique ID : 227523579063005394729730688206825942443 (0xAB2B72889ECA065E8054563BCC716DAB)
    Complete name : The Twilight Saga 3 Eclipse (2010) 1080p.mkv
    Format : Matroska
    Format version : Version 4 / Version 2
    File size : 9.70 GiB
    Duration : 2h 3mn
    Overall bit rate : 11.2 Mbps
    Encoded date : UTC 2016-10-15 06:42:01
    Writing application : mkvmerge v8.2.0 ( World of Adventure ) 64bit
    Writing library : libebml v1.3.1 + libmatroska v1.4.2
    DURATION : 02:03:56.384000000
    NUMBER_OF_FRAMES : 232387
    NUMBER_OF_BYTES : 416437504
    _STATISTICS_WRITING_APP : mkvmerge v8.2.0 ( World of Adventure ) 64bit
    _STATISTICS_WRITING_DATE_UTC : 2016-10-15 06:42:01
    _STATISTICS_TAGS : BPS DURATION NUMBER_OF_FRAMES NUMBER_OF_BYTES

    Video
    ID : 1
    Format : AVC
    Format/Info : Advanced Video Codec
    Format profile : [email protected]
    Format settings, CABAC : Yes
    Format settings, ReFrames : 5 frames
    Codec ID : V_MPEG4/ISO/AVC
    Duration : 2h 3mn
    Bit rate : 8 578 Kbps
    Width : 1 920 pixels
    Height : 800 pixels
    Display aspect ratio : 2.40:1
    Frame rate mode : Constant
    Frame rate : 23.976 fps
    Color space : YUV
    Chroma subsampling : 4:2:0
    Bit depth : 8 bits
    Scan type : Progressive
    Bits/(Pixel*Frame) : 0.233
    Stream size : 7.25 GiB (75%)
    Writing library : x264 core 107 r1772 c9dad9e
    Encoding settings : cabac=1 / ref=5 / deblock=1:0:0 / analyse=0x3:0x113 / me=umh / subme=7 / psy=1 / psy_rd=1.00:0.20 / mixed_ref=1 / me_range=16 / chroma_me=1 / trellis=1 / 8x8dct=1 / cqm=0 / deadzone=21,11 / fast_pskip=1 / chroma_qp_offset=-3 / threads=12 / sliced_threads=0 / nr=0 / decimate=1 / interlaced=0 / constrained_intra=0 / bframes=3 / b_pyramid=2 / b_adapt=1 / b_bias=0 / direct=3 / weightb=1 / open_gop=0 / weightp=0 / keyint=250 / keyint_min=23 / scenecut=40 / intra_refresh=0 / rc_lookahead=40 / rc=2pass / mbtree=1 / bitrate=8578 / ratetol=1.0 / qcomp=0.60 / qpmin=10 / qpmax=51 / qpstep=4 / cplxblur=20.0 / qblur=0.5 / ip_ratio=1.40 / aq=1:1.00
    Language : English
    Default : Yes
    Forced : No
    DURATION : 02:03:57.430000000
    NUMBER_OF_FRAMES : 178320
    NUMBER_OF_BYTES : 7970496485
    _STATISTICS_WRITING_APP : mkvmerge v8.2.0 ( World of Adventure ) 64bit
    _STATISTICS_WRITING_DATE_UTC : 2016-10-15 06:42:01
    _STATISTICS_TAGS : BPS DURATION NUMBER_OF_FRAMES NUMBER_OF_BYTES

    Audio #1
    ID : 2
    Format : AC-3
    Format/Info : Audio Coding 3
    Mode extension : CM (complete main)
    Format settings, Endianness : Big
    Codec ID : A_AC3
    Duration : 2h 3mn
    Bit rate mode : Constant
    Bit rate : 448 Kbps
    Channel(s) : 6 channels
    Channel positions : Front: L C R, Side: L R, LFE
    Sampling rate : 48.0 KHz
    Compression mode : Lossy
    Stream size : 397 MiB (4%)
    Title : Thai AC-3
    Language : Thai
    Default : Yes
    Forced : Yes

    Audio #2
    ID : 3
    Format : DTS
    Format/Info : Digital Theater Systems
    Mode : 16
    Format settings, Endianness : Big
    Codec ID : A_DTS
    Duration : 2h 3mn
    Bit rate mode : Constant
    Bit rate : 1 509 Kbps
    Channel(s) : 6 channels
    Channel positions : Front: L C R, Side: L R, LFE
    Sampling rate : 48.0 KHz
    Bit depth : 24 bits
    Compression mode : Lossy
    Stream size : 1.31 GiB (13%)
    Title : Eng DTS
    Language : English
    Default : No
    Forced : No

    Audio #3
    ID : 4
    Format : AC-3
    Format/Info : Audio Coding 3
    Mode extension : CM (complete main)
    Format settings, Endianness : Big
    Codec ID : A_AC3
    Duration : 2h 3mn
    Bit rate mode : Constant
    Bit rate : 640 Kbps
    Channel(s) : 6 channels
    Channel positions : Front: L C R, Side: L R, LFE
    Sampling rate : 48.0 KHz
    Compression mode : Lossy
    Stream size : 567 MiB (6%)
    Title : Eng AC-3
    Language : English
    Default : No
    Forced : No

    Text #1
    ID : 5
    Format : VobSub
    Muxing mode : zlib
    Codec ID : S_VOBSUB
    Codec ID/Info : Picture based subtitle format used on DVDs
    Title : Thai
    Language : Thai
    Default : No
    Forced : No

    Text #2
    ID : 6
    Format : SSA
    Codec ID : S_TEXT/SSA
    Codec ID/Info : Sub Station Alpha
    Compression mode : Lossless
    Title : Thai
    Language : Thai
    Default : No
    Forced : No

    Text #3
    ID : 7
    Format : UTF-8
    Codec ID : S_TEXT/UTF8
    Codec ID/Info : UTF-8 Plain Text
    Title : Thai
    Language : Thai
    Default : No
    Forced : No

    Text #4
    ID : 8
    Format : VobSub
    Muxing mode : zlib
    Codec ID : S_VOBSUB
    Codec ID/Info : Picture based subtitle format used on DVDs
    Title : Eng
    Language : English
    Default : No
    Forced : No

    Text #5
    ID : 9
    Format : UTF-8
    Codec ID : S_TEXT/UTF8
    Codec ID/Info : UTF-8 Plain Text
    Title : Eng SRT
    Language : English
    Default : No
    Forced : No

    Text #6
    ID : 10
    Format : VobSub
    Muxing mode : zlib
    Codec ID : S_VOBSUB
    Codec ID/Info : Picture based subtitle format used on DVDs
    Title : Spanish
    Language : Spanish
    Default : No
    Forced : No

    Text #7
    ID : 11
    Format : VobSub
    Muxing mode : zlib
    Codec ID : S_VOBSUB
    Codec ID/Info : Picture based subtitle format used on DVDs
    Title : Chinese
    Language : Chinese
    Default : No
    Forced : No

    Text #8
    ID : 12
    Format : VobSub
    Muxing mode : zlib
    Codec ID : S_VOBSUB
    Codec ID/Info : Picture based subtitle format used on DVDs
    Title : Chinese
    Language : Chinese
    Default : No
    Forced : No

    Menu #1
    00:00:00.000 : en:00:00:00.000
    00:08:47.694 : en:00:08:47.694
    00:17:37.515 : en:00:17:37.515
    00:25:17.516 : en:00:25:17.516
    00:30:20.402 : en:00:30:20.402
    00:36:45.078 : en:00:36:45.078
    00:43:31.776 : en:00:43:31.776
    00:50:13.761 : en:00:50:13.761
    00:55:34.373 : en:00:55:34.373
    01:00:11.608 : en:01:00:11.608
    01:06:12.218 : en:01:06:12.218
    01:13:05.214 : en:01:13:05.214
    01:19:43.362 : en:01:19:43.362
    01:25:15.819 : en:01:25:15.819
    01:31:27.232 : en:01:31:27.232
    01:35:54.958 : en:01:35:54.958
    01:43:19.985 : en:01:43:19.985
    01:51:53.498 : en:01:51:53.498

    Menu #2
    00:00:00.000 : en:00:00:00.000
    00:08:47.694 : en:00:08:47.694
    00:17:37.515 : en:00:17:37.515
    00:25:17.516 : en:00:25:17.516
    00:30:20.402 : en:00:30:20.402
    00:36:45.078 : en:00:36:45.078
    00:43:31.776 : en:00:43:31.776
    00:50:13.761 : en:00:50:13.761
    00:55:34.373 : en:00:55:34.373
    01:00:11.608 : en:01:00:11.608
    01:06:12.218 : en:01:06:12.218
    01:13:05.214 : en:01:13:05.214
    01:19:43.362 : en:01:19:43.362
    01:25:15.819 : en:01:25:15.819
    01:31:27.232 : en:01:31:27.232
    01:35:54.958 : en:01:35:54.958
    01:43:19.985 : en:01:43:19.985
    01:51:53.498 : en:01:51:53.498

    xxxxxxxxxxxxxxxxxxxxxxxxxxxxxxxxxxxxxxxxxxxxxxxxxx xxxxxxx

    The Twilight Saga 4.1 Breaking Dawn (2011) 1080p
    พากย์ อังกฤษ DTS พากย์ อังกฤษ ไทย AC-3 บรรยาย อังกฤษ ไทย
    SS = https://www.mpic.ws/image/5Tzyj

    เอ็ดเวิร์ด และเบลล่า ตัดสินใจใช้ชีวิตคู่ร่วมกัน และพากันไปฮันนีมูนเงียบๆเที่ชายฝั่งทะเลประเทศบราซิ ล
    ซึ่งไม่นานเบลล่าก็ตั้งครรภ์นำพา ซึ่งความหนักใจให้กับเอ็ดเวิร์ด เพราะเขาทราบดีว่าเด็กน้อยที่เติบโตอย่างรวดเร็วในท้ องนั้นมีสายเลือดครึ่งคนครึ่งแวมไพร์
    และอาจมีพลังชั่วร้ายที่ควบคุมไม่ได้ ซึ่งเขาขอร้องให้เธอทำแท้ง แต่เบลล่าไม่ยอม จนกระทั่งข่าวนี้รู้ถึงกลุ่มโวลตูรี่ ที่ต้องการเด็กมาครอบครองและกลุ่มของมนุษย์หมาป่า
    ที่ต้องการกำจัดเด็กก่อนที่ทุกอย่างจะสายเกินไป ทว่า เจคอบไม่เห็นด้วยกับความคิดนี้ เขาจึงลาออกจากฝูง และไปรวบรวมฝูงใหม่ของตนขึ้นมา เพื่อปกป้องสาวที่ตนรัก!!!

    General
    Unique ID : 195968971060765524784237750688781444461 (0x936E403E7FE6949495611F1374AC256D)
    Complete name : The Twilight Saga 4.1 Breaking Dawn (2011) 1080p.mkv
    Format : Matroska
    Format version : Version 4 / Version 2
    File size : 9.43 GiB
    Duration : 1h 57mn
    Overall bit rate : 11.5 Mbps
    Encoded date : UTC 2016-10-15 05:08:43
    Writing application : mkvmerge v8.2.0 ( World of Adventure ) 64bit
    Writing library : libebml v1.3.1 + libmatroska v1.4.2
    DURATION : 01:57:07.872000000
    NUMBER_OF_FRAMES : 219621
    NUMBER_OF_BYTES : 337337856
    _STATISTICS_WRITING_APP : mkvmerge v8.2.0 ( World of Adventure ) 64bit
    _STATISTICS_WRITING_DATE_UTC : 2016-10-15 05:08:43
    _STATISTICS_TAGS : BPS DURATION NUMBER_OF_FRAMES NUMBER_OF_BYTES

    Video
    ID : 1
    Format : AVC
    Format/Info : Advanced Video Codec
    Format profile : [email protected]
    Format settings, CABAC : Yes
    Format settings, ReFrames : 5 frames
    Codec ID : V_MPEG4/ISO/AVC
    Duration : 1h 57mn
    Bit rate : 9 175 Kbps
    Width : 1 920 pixels
    Height : 800 pixels
    Display aspect ratio : 2.40:1
    Frame rate mode : Constant
    Frame rate : 23.976 fps
    Color space : YUV
    Chroma subsampling : 4:2:0
    Bit depth : 8 bits
    Scan type : Progressive
    Bits/(Pixel*Frame) : 0.249
    Stream size : 7.33 GiB (78%)
    Writing library : x264 core 120 r2120 0c7dab9
    Encoding settings : cabac=1 / ref=5 / deblock=1:0:0 / analyse=0x3:0x133 / me=umh / subme=8 / psy=1 / psy_rd=1.00:0.00 / mixed_ref=1 / me_range=16 / chroma_me=1 / trellis=1 / 8x8dct=1 / cqm=0 / deadzone=21,11 / fast_pskip=1 / chroma_qp_offset=-2 / threads=24 / sliced_threads=0 / nr=0 / decimate=1 / interlaced=0 / bluray_compat=0 / constrained_intra=0 / bframes=3 / b_pyramid=2 / b_adapt=1 / b_bias=0 / direct=1 / weightb=1 / open_gop=0 / weightp=2 / keyint=250 / keyint_min=23 / scenecut=40 / intra_refresh=0 / rc=2pass / mbtree=0 / bitrate=9175 / ratetol=1.0 / qcomp=0.60 / qpmin=0 / qpmax=69 / qpstep=4 / cplxblur=20.0 / qblur=0.5 / ip_ratio=1.40 / pb_ratio=1.30 / aq=1:1.00
    Language : English
    Default : Yes
    Forced : No
    DURATION : 01:57:07.980000000
    NUMBER_OF_FRAMES : 168503
    NUMBER_OF_BYTES : 8056972755
    _STATISTICS_WRITING_APP : mkvmerge v8.2.0 ( World of Adventure ) 64bit
    _STATISTICS_WRITING_DATE_UTC : 2016-10-15 05:08:43
    _STATISTICS_TAGS : BPS DURATION NUMBER_OF_FRAMES NUMBER_OF_BYTES

    Audio #1
    ID : 2
    Format : AC-3
    Format/Info : Audio Coding 3
    Mode extension : CM (complete main)
    Format settings, Endianness : Big
    Codec ID : A_AC3
    Duration : 1h 57mn
    Bit rate mode : Constant
    Bit rate : 448 Kbps
    Channel(s) : 6 channels
    Channel positions : Front: L C R, Side: L R, LFE
    Sampling rate : 48.0 KHz
    Compression mode : Lossy
    Stream size : 375 MiB (4%)
    Title : Thai AC-3
    Language : Thai
    Default : Yes
    Forced : Yes

    Audio #2
    ID : 3
    Format : DTS
    Format/Info : Digital Theater Systems
    Format profile : ES
    Mode : 16
    Format settings, Endianness : Big
    Codec ID : A_DTS
    Duration : 1h 57mn
    Bit rate mode : Constant
    Bit rate : 1 509 Kbps
    Channel(s) : 6 channels
    Channel positions : Front: L C R, Side: L R, LFE
    Sampling rate : 48.0 KHz
    Bit depth : 24 bits
    Compression mode : Lossy
    Stream size : 1.23 GiB (13%)
    Title : Eng DTS
    Language : English
    Default : No
    Forced : No

    Audio #3
    ID : 4
    Format : AC-3
    Format/Info : Audio Coding 3
    Mode extension : CM (complete main)
    Format settings, Endianness : Big
    Codec ID : A_AC3
    Duration : 1h 57mn
    Bit rate mode : Constant
    Bit rate : 384 Kbps
    Channel(s) : 6 channels
    Channel positions : Front: L C R, Side: L R, LFE
    Sampling rate : 48.0 KHz
    Compression mode : Lossy
    Stream size : 322 MiB (3%)
    Title : Eng AC-3
    Language : English
    Default : No
    Forced : No

    Text #1
    ID : 5
    Format : VobSub
    Muxing mode : zlib
    Codec ID : S_VOBSUB
    Codec ID/Info : Picture based subtitle format used on DVDs
    Title : Thai
    Language : Thai
    Default : No
    Forced : No

    Text #2
    ID : 6
    Format : VobSub
    Muxing mode : zlib
    Codec ID : S_VOBSUB
    Codec ID/Info : Picture based subtitle format used on DVDs
    Title : Thai
    Language : Thai
    Default : No
    Forced : No

    Text #3
    ID : 7
    Format : VobSub
    Muxing mode : zlib
    Codec ID : S_VOBSUB
    Codec ID/Info : Picture based subtitle format used on DVDs
    Title : Thai
    Language : Thai
    Default : No
    Forced : No

    Text #4
    ID : 8
    Format : VobSub
    Muxing mode : zlib
    Codec ID : S_VOBSUB
    Codec ID/Info : Picture based subtitle format used on DVDs
    Title : Eng
    Language : English
    Default : No
    Forced : No

    Text #5
    ID : 9
    Format : UTF-8
    Codec ID : S_TEXT/UTF8
    Codec ID/Info : UTF-8 Plain Text
    Title : Eng SRT
    Language : English
    Default : No
    Forced : No

    Text #6
    ID : 10
    Format : VobSub
    Muxing mode : zlib
    Codec ID : S_VOBSUB
    Codec ID/Info : Picture based subtitle format used on DVDs
    Title : Spanish
    Language : Spanish
    Default : No
    Forced : No

    Menu
    00:00:00.000 : en:00:00:00.000
    00:08:10.115 : en:00:08:10.115
    00:11:23.683 : en:00:11:23.683
    00:16:30.740 : en:00:16:30.740
    00:21:03.762 : en:00:21:03.762
    00:29:28.266 : en:00:29:28.266
    00:34:43.290 : en:00:34:43.290
    00:41:15.556 : en:00:41:15.556
    00:47:42.485 : en:00:47:42.485
    00:55:57.813 : en:00:55:57.813
    01:04:21.441 : en:01:04:21.441
    01:09:47.058 : en:01:09:47.058
    01:13:47.381 : en:01:13:47.381
    01:20:50.804 : en:01:20:50.804
    01:28:22.964 : en:01:28:22.964
    01:36:25.488 : en:01:36:25.488
    01:41:44.098 : en:01:41:44.098
    01:46:51.697 : en:01:46:51.697

    xxxxxxxxxxxxxxxxxxxxxxxxxxxxxxxxxxxxxxxxxxxxxxxxxx xxxxxxx

    The Twilight Saga 4.2 Breaking Dawn (2012) 1080p
    พากย์ อังกฤษ DTS พากย์ อังกฤษ ไทย AC-3 บรรยาย อังกฤษ ไทย
    SS = https://www.mpic.ws/image/5aECS

    เบลล่า (คริสเต็น สจ๊วต) ใช้เวลาปรับตัวกับชีวิตใหม่ในการเป็นแวมไพร์
    กลุ่มแวมไพร์โวลตูรี่ก็แสดงความต้องการตัว เรเนสมี ลูกสาวของ เอ็ดเวิร์ด (โรเบิร์ต แพททินสัน) และ เบลล่า มาครอบครอง
    ครอบครัวคัลเลนจึงขอความช่วยเหลือจากกลุ่มแวมไพร์พัน ธมิตรทั่วโลก รวมถึง เจคอบ (เทย์เลอร์ เลาท์เนอร์) ที่ผูกวิญญาณกับ เรเนสมีแล้ว
    เพื่อร่วมต่อสู้ในสงครามครั้งสุดท้ายกับกลุ่มแวมไพร์ โวลตูรี่ ที่จะเป็นบทสรุปของทุกสิ่ง สงครามแวมไพร์ที่จะเกิดขึ้นในช่วงไคลแมกซ์
    ถือเป็นการแนะนำให้รู้จักกับกลุ่มแวมไพร์ทั่วโลก ไม่ว่าจะเป็นกลุ่มแวมไพร์เดนาลี พันธมิตรของครอบครัวคัลเลน กลุ่มแวมไพร์จากอียิปต์
    นำโดย เบนจามิน ที่มีความสามารถในการควบคุมธาตุทั้งสี่ ดิน น้ำ ลม ไฟ รวมถึง แกเร็ธ แวมไพร์เร่ร่อนเจ้าสเน่ห์ ที่เป็นเพื่อนเก่าของ เอ็ดเวิร์ด!!!

    General
    Unique ID : 247891114524221724892794707753641141941 (0xBA7E178FFF46763F8BB1187005F766B5)
    Complete name : The Twilight Saga 4.2 Breaking Dawn (2012) 1080p.mkv
    Format : Matroska
    Format version : Version 4 / Version 2
    File size : 8.84 GiB
    Duration : 1h 55mn
    Overall bit rate : 11.0 Mbps
    Encoded date : UTC 2016-10-12 09:07:25
    Writing application : mkvmerge v8.2.0 ( World of Adventure ) 64bit
    Writing library : libebml v1.3.1 + libmatroska v1.4.2
    DURATION : 01:46:08.244000000
    NUMBER_OF_FRAMES : 1850
    NUMBER_OF_BYTES : 8119832
    _STATISTICS_WRITING_APP : mkvmerge v8.2.0 ( World of Adventure ) 64bit
    _STATISTICS_WRITING_DATE_UTC : 2016-10-12 09:07:25
    _STATISTICS_TAGS : BPS DURATION NUMBER_OF_FRAMES NUMBER_OF_BYTES

    Video
    ID : 1
    Format : AVC
    Format/Info : Advanced Video Codec
    Format profile : [email protected]
    Format settings, CABAC : Yes
    Format settings, ReFrames : 5 frames
    Codec ID : V_MPEG4/ISO/AVC
    Duration : 1h 55mn
    Bit rate : 8 364 Kbps
    Width : 1 920 pixels
    Height : 800 pixels
    Display aspect ratio : 2.40:1
    Frame rate mode : Constant
    Frame rate : 23.976 fps
    Color space : YUV
    Chroma subsampling : 4:2:0
    Bit depth : 8 bits
    Scan type : Progressive
    Bits/(Pixel*Frame) : 0.227
    Stream size : 6.57 GiB (74%)
    Writing library : x264 core 129 r2245 bc13772
    Encoding settings : cabac=1 / ref=5 / deblock=1:0:0 / analyse=0x3:0x133 / me=umh / subme=7 / psy=1 / psy_rd=1.00:0.00 / mixed_ref=1 / me_range=16 / chroma_me=1 / trellis=1 / 8x8dct=1 / cqm=0 / deadzone=21,11 / fast_pskip=0 / chroma_qp_offset=-2 / threads=18 / lookahead_threads=3 / sliced_threads=0 / nr=0 / decimate=1 / interlaced=0 / bluray_compat=0 / constrained_intra=0 / bframes=3 / b_pyramid=2 / b_adapt=1 / b_bias=0 / direct=1 / weightb=1 / open_gop=0 / weightp=2 / keyint=250 / keyint_min=23 / scenecut=40 / intra_refresh=0 / rc_lookahead=40 / rc=2pass / mbtree=1 / bitrate=8364 / ratetol=1.0 / qcomp=0.60 / qpmin=0 / qpmax=69 / qpstep=4 / cplxblur=20.0 / qblur=0.5 / ip_ratio=1.40 / aq=1:1.00
    Language : English
    Default : Yes
    Forced : No
    DURATION : 01:55:12.739000000
    NUMBER_OF_FRAMES : 165740
    NUMBER_OF_BYTES : 7226624158
    _STATISTICS_WRITING_APP : mkvmerge v8.2.0 ( World of Adventure ) 64bit
    _STATISTICS_WRITING_DATE_UTC : 2016-10-12 09:07:25
    _STATISTICS_TAGS : BPS DURATION NUMBER_OF_FRAMES NUMBER_OF_BYTES

    Audio #1
    ID : 2
    Format : AC-3
    Format/Info : Audio Coding 3
    Mode extension : CM (complete main)
    Format settings, Endianness : Big
    Codec ID : A_AC3
    Duration : 1h 55mn
    Bit rate mode : Constant
    Bit rate : 448 Kbps
    Channel(s) : 6 channels
    Channel positions : Front: L C R, Side: L R, LFE
    Sampling rate : 48.0 KHz
    Compression mode : Lossy
    Stream size : 369 MiB (4%)
    Title : Thai AC-3
    Language : Thai
    Default : Yes
    Forced : Yes

    Audio #2
    ID : 3
    Format : DTS
    Format/Info : Digital Theater Systems
    Mode : 16
    Format settings, Endianness : Big
    Codec ID : A_DTS
    Duration : 1h 55mn
    Bit rate mode : Constant
    Bit rate : 1 509 Kbps
    Channel(s) : 6 channels
    Channel positions : Front: L C R, Side: L R, LFE
    Sampling rate : 48.0 KHz
    Bit depth : 24 bits
    Compression mode : Lossy
    Stream size : 1.21 GiB (14%)
    Title : Eng DTS
    Language : English
    Default : No
    Forced : No

    Audio #3
    ID : 4
    Format : AC-3
    Format/Info : Audio Coding 3
    Mode extension : CM (complete main)
    Format settings, Endianness : Big
    Codec ID : A_AC3
    Duration : 1h 55mn
    Bit rate mode : Constant
    Bit rate : 640 Kbps
    Channel(s) : 6 channels
    Channel positions : Front: L C R, Side: L R, LFE
    Sampling rate : 48.0 KHz
    Compression mode : Lossy
    Delay relative to video : 833ms
    Stream size : 527 MiB (6%)
    Title : Eng AC-3
    Language : English
    Default : No
    Forced : No

    Text #1
    ID : 5
    Format : VobSub
    Muxing mode : zlib
    Codec ID : S_VOBSUB
    Codec ID/Info : Picture based subtitle format used on DVDs
    Title : Thai
    Language : Twi
    Default : No
    Forced : No

    Text #2
    ID : 6
    Format : VobSub
    Muxing mode : zlib
    Codec ID : S_VOBSUB
    Codec ID/Info : Picture based subtitle format used on DVDs
    Title : Thai UNDER
    Language : Thai
    Default : No
    Forced : No

    Text #3
    ID : 7
    Format : PGS
    Muxing mode : zlib
    Codec ID : S_HDMV/PGS
    Codec ID/Info : Picture based subtitle format used on BDs/HD-DVDs
    Title : Thai PGS
    Language : Thai
    Default : No
    Forced : No

    Text #4
    ID : 8
    Format : PGS
    Muxing mode : zlib
    Codec ID : S_HDMV/PGS
    Codec ID/Info : Picture based subtitle format used on BDs/HD-DVDs
    Title : Thai PGS Angsana
    Language : Thai
    Default : No
    Forced : No

    Text #5
    ID : 9
    Format : UTF-8
    Codec ID : S_TEXT/UTF8
    Codec ID/Info : UTF-8 Plain Text
    Title : Eng SRT
    Language : English
    Default : No
    Forced : No

    Text #6
    ID : 10
    Format : UTF-8
    Codec ID : S_TEXT/UTF8
    Codec ID/Info : UTF-8 Plain Text
    Title : Italian
    Language : Italian
    Default : No
    Forced : No

    Menu #1
    00:00:00.000 : en:00:00:00.000
    00:08:04.067 : en:00:08:04.067
    00:13:35.398 : en:00:13:35.398
    00:18:36.073 : en:00:18:36.073
    00:22:11.080 : en:00:22:11.080
    00:30:03.343 : en:00:30:03.343
    00:38:06.159 : en:00:38:06.159
    00:44:23.619 : en:00:44:23.619
    00:48:35.830 : en:00:48:35.830
    00:52:31.440 : en:00:52:31.440
    00:58:11.947 : en:00:58:11.947
    01:02:10.352 : en:01:02:10.352
    01:08:26.060 : en:01:08:26.060
    01:11:38.503 : en:01:11:38.503
    01:20:35.456 : en:01:20:35.456
    01:24:57.509 : en:01:24:57.509
    01:32:17.157 : en:01:32:17.157
    01:38:08.966 : en:01:38:08.966

    Menu #2
    00:00:00.000 : en:00:00:00.000
    00:08:04.067 : en:00:08:04.067
    00:13:35.398 : en:00:13:35.398
    00:18:36.073 : en:00:18:36.073
    00:22:11.080 : en:00:22:11.080
    00:30:03.343 : en:00:30:03.343
    00:38:06.159 : en:00:38:06.159
    00:44:23.619 : en:00:44:23.619
    00:48:35.830 : en:00:48:35.830
    00:52:31.440 : en:00:52:31.440
    00:58:11.947 : en:00:58:11.947
    01:02:10.352 : en:01:02:10.352
    01:08:26.060 : en:01:08:26.060
    01:11:38.503 : en:01:11:38.503
    01:20:35.456 : en:01:20:35.456
    01:24:57.509 : en:01:24:57.509
    01:32:17.157 : en:01:32:17.157
    01:38:08.966 : en:01:38:08.966


    1
    http://cornfile.com/4tdej0dv7g7r
    2
    http://cornfile.com/flanqylwfddt
    3
    http://cornfile.com/bogo0rqhf7s1
    4
    http://cornfile.com/v3h086ypz8eq
    5
    http://cornfile.com/0xh3uk9fc2oi

  2. The Following User Says Thank You to Duckload.us For This Useful Post:

    beerdum (01-13-2019)

  3. #2
    Junior Member
    สมัครเมื่อ
    Aug 2014
    โพสต์
    4
    Thanks
    0
    Thanked 0 Times in 0 Posts
    ฝากแก้ไขลิงค์ด้วยครับ 3,4 และ 5 โหลดไม่ได้ครับ
    ขอบคุณนะครับ

  4. #3
    Junior Member
    สมัครเมื่อ
    Aug 2013
    โพสต์
    16
    Thanks
    461
    Thanked 0 Times in 0 Posts
    ผมลองโหลด ไฟล์ 4 กับ 5 ก็โหลดได้ปกติแล้วนะครับ

+ ตอบกลับกระทู้

ข้อมูลกระทู้

Users Browsing this Thread

ในขณะนี้มี 1 ท่านดูกระทู้อยู่. (0 สมาชิกและ 1 ผู้เยี่ยมชม)

     

กฎการโพสต์ข้อความ

  • ท่าน ไม่สามารถ ตั้งกระทู้ใหม่ได้
  • ท่าน ไม่สามารถ ตอบกระทู้ได้
  • ท่าน ไม่สามารถ แนบไฟล์ได้
  • ท่าน ไม่สามารถ แก้ไขข้อความโพสต์ได้
  • BB code สถานะ เปิด
  • Smilies สถานะ เปิด
  • [IMG] สถานะ เปิด
  • HTML สถานะ ปิด