+ ตอบกลับกระทู้
สรุปผลการค้นหา 1 ถึง 1 จากทั้งหมด 1
  1. #1
    Administrators รูปส่วนตัว Duckload.us
    สมัครเมื่อ
    Dec 2010
    โพสต์
    108,513
    Thanks
    7
    Thanked 113,465 Times in 52,350 Posts

    Red face [ฝรั่ง]-Rambo แรมโบ้ ภาค 1-4 (1982-2008) 1080p-DTS-Blu ray-AVC-H.264-AAA-[พากย์ไทย บรรยายไทย]



    Rambo 1 แรมโบ้ นักรบเดนตาย First Blood Part I (1982) 1080p
    พากย์ อังกฤษ ไทย DTS พากย์ อังกฤษ ไทย AC-3 บรรยาย อังกฤษ ไทย
    SS = https://www.mpic.ws/image/DJk2O

    ผลงานสุดมันส์ที่สร้างชื่อให้กับ ซิลเวสเตอร์ สตอลโลน กลายเป็นซูเปอร์สตาร์ในฐานะดาราแอ็คชั่นที่ยิ่งใหญ่ค นหนึ่งของโลก
    สตอลโลนรับบท จอห์น แรมโบ้ วีรบุรุษสมรภูมิเวียดนามที่ถูกจับกุมอย่างไม่เป็นธรร มโดย ทีเซล หัวหน้ากองรบเฉพาะกิจ แรมโบ้จึงแหกคุกออกมาและต่อสู้กับกองรบของทีเซล เมื่อทีเซล พบว่าลูกน้องของเขาถูกกำจัดไปทีละคนสองคน ความแค้นทำให้ทีเซลต้องการตัวแรมโบ้มากยิ่งขึ้นขณะเด ียวกัน แรมโบ้ก็พร้อมที่จะตอบโต้เช่นกัน

    General
    Unique ID : 223862585238381465437806802583815700722 (0xA86A5D9A2E24C060B0E0D8F38F87C0F2)
    Complete name : Rambo 1 แรมโบ้ นักรบเดนตาย First Blood Part I (1982) 1080p.mkv
    Format : Matroska
    Format version : Version 4 / Version 2
    File size : 8.85 GiB
    Duration : 1h 33mn
    Overall bit rate : 13.6 Mbps
    Encoded date : UTC 2017-06-05 00:31:54
    Writing application : mkvmerge v8.2.0 ( World of Adventure ) 64bit
    Writing library : libebml v1.3.1 + libmatroska v1.4.2
    DURATION : 01:33:11.633000000
    NUMBER_OF_FRAMES : 262107
    NUMBER_OF_BYTES : 156565249
    _STATISTICS_WRITING_APP : mkvmerge v8.2.0 ( World of Adventure ) 64bit
    _STATISTICS_WRITING_DATE_UTC : 2017-06-05 00:31:54
    _STATISTICS_TAGS : BPS DURATION NUMBER_OF_FRAMES NUMBER_OF_BYTES

    Video
    ID : 1
    Format : AVC
    Format/Info : Advanced Video Codec
    Format profile : [email protected]
    Format settings, CABAC : Yes
    Format settings, ReFrames : 5 frames
    Codec ID : V_MPEG4/ISO/AVC
    Duration : 1h 33mn
    Nominal bit rate : 10.7 Mbps
    Width : 1 920 pixels
    Height : 816 pixels
    Display aspect ratio : 2.35:1
    Frame rate mode : Constant
    Frame rate : 23.976 fps
    Color space : YUV
    Chroma subsampling : 4:2:0
    Bit depth : 8 bits
    Scan type : Progressive
    Bits/(Pixel*Frame) : 0.285
    Writing library : x264 core 59 r851M e11ef38
    Encoding settings : cabac=1 / ref=5 / deblock=1:0:0 / analyse=0x3:0x113 / me=umh / subme=7 / me-prepass=0 / brdo=1 / mixed_ref=1 / me_range=16 / chroma_me=1 / trellis=1 / 8x8dct=1 / cqm=0 / deadzone=21,11 / chroma_qp_offset=0 / threads=6 / nr=0 / decimate=1 / mbaff=0 / fgo=0 / bframes=3 / b_pyramid=1 / b_adapt=1 / b_bias=0 / direct=1 / wpredb=1 / bime=1 / keyint=250 / keyint_min=25 / scenecut=40(pre) / rc=2pass / bitrate=10690 / ratetol=1.0 / rceq= blurCplx^(1-qComp) / qcomp=1.00 / qpmin=10 / qpmax=51 / qpstep=4 / cplxblur=20.0 / qblur=0.5 / ip_ratio=1.40 / pb_ratio=1.30 / aq=2:1.00
    Language : English
    Default : Yes
    Forced : No
    DURATION : 01:33:11.554000000
    NUMBER_OF_FRAMES : 134063
    NUMBER_OF_BYTES : 7471711050
    _STATISTICS_WRITING_APP : mkvmerge v8.2.0 ( World of Adventure ) 64bit
    _STATISTICS_WRITING_DATE_UTC : 2017-06-05 00:31:54
    _STATISTICS_TAGS : BPS DURATION NUMBER_OF_FRAMES NUMBER_OF_BYTES

    Audio #1
    ID : 2
    Format : DTS
    Format/Info : Digital Theater Systems
    Mode : 16
    Format settings, Endianness : Big
    Codec ID : A_DTS
    Duration : 1h 33mn
    Bit rate mode : Constant
    Bit rate : 755 Kbps
    Channel(s) : 6 channels
    Channel positions : Front: L C R, Side: L R, LFE
    Sampling rate : 48.0 KHz
    Bit depth : 24 bits
    Compression mode : Lossy
    Stream size : 503 MiB (6%)
    Title : Thai DTS
    Language : Thai
    Default : Yes
    Forced : Yes

    Audio #2
    ID : 3
    Format : DTS
    Format/Info : Digital Theater Systems
    Mode : 16
    Format settings, Endianness : Big
    Codec ID : A_DTS
    Duration : 1h 33mn
    Bit rate mode : Constant
    Bit rate : 1 509 Kbps
    Channel(s) : 6 channels
    Channel positions : Front: L C R, Side: L R, LFE
    Sampling rate : 48.0 KHz
    Bit depth : 24 bits
    Compression mode : Lossy
    Stream size : 1 006 MiB (11%)
    Title : Eng DTS
    Language : English
    Default : No
    Forced : No

    Audio #3
    ID : 4
    Format : AC-3
    Format/Info : Audio Coding 3
    Mode extension : CM (complete main)
    Format settings, Endianness : Big
    Codec ID : A_AC3
    Duration : 1h 33mn
    Bit rate mode : Constant
    Bit rate : 384 Kbps
    Channel(s) : 6 channels
    Channel positions : Front: L C R, Side: L R, LFE
    Sampling rate : 48.0 KHz
    Compression mode : Lossy
    Delay relative to video : 2s 300ms
    Stream size : 256 MiB (3%)
    Title : Thai AC-3
    Language : Thai
    Default : No
    Forced : No

    Audio #4
    ID : 5
    Format : AAC
    Format/Info : Advanced Audio Codec
    Format profile : LC
    Codec ID : A_AAC
    Duration : 1h 33mn
    Channel(s) : 6 channels
    Channel positions : Front: L C R, Side: L R, LFE
    Sampling rate : 48.0 KHz
    Compression mode : Lossy
    Title : Eng AAC
    Language : English
    Default : No
    Forced : No

    Text #1
    ID : 6
    Format : VobSub
    Muxing mode : zlib
    Codec ID : S_VOBSUB
    Codec ID/Info : Picture based subtitle format used on DVDs
    Title : Thai
    Language : Thai
    Default : No
    Forced : No

    Text #2
    ID : 7
    Format : VobSub
    Muxing mode : zlib
    Codec ID : S_VOBSUB
    Codec ID/Info : Picture based subtitle format used on DVDs
    Title : Thai
    Language : Thai
    Default : No
    Forced : No

    Text #3
    ID : 8
    Format : VobSub
    Muxing mode : zlib
    Codec ID : S_VOBSUB
    Codec ID/Info : Picture based subtitle format used on DVDs
    Title : Thai
    Language : Thai
    Default : No
    Forced : No

    Text #4
    ID : 9
    Format : PGS
    Muxing mode : zlib
    Codec ID : S_HDMV/PGS
    Codec ID/Info : Picture based subtitle format used on BDs/HD-DVDs
    Title : Thai PGS
    Language : Thai
    Default : No
    Forced : No

    Text #5
    ID : 10
    Format : PGS
    Muxing mode : zlib
    Codec ID : S_HDMV/PGS
    Codec ID/Info : Picture based subtitle format used on BDs/HD-DVDs
    Title : Thai UNDER
    Language : Thai
    Default : No
    Forced : No

    Text #6
    ID : 11
    Format : PGS
    Muxing mode : zlib
    Codec ID : S_HDMV/PGS
    Codec ID/Info : Picture based subtitle format used on BDs/HD-DVDs
    Title : Eng PGS
    Language : Thai
    Default : No
    Forced : No

    Text #7
    ID : 12
    Format : VobSub
    Muxing mode : zlib
    Codec ID : S_VOBSUB
    Codec ID/Info : Picture based subtitle format used on DVDs
    Title : Eng
    Language : English
    Default : No
    Forced : No

    Text #8
    ID : 13
    Format : UTF-8
    Codec ID : S_TEXT/UTF8
    Codec ID/Info : UTF-8 Plain Text
    Title : Eng SRT
    Language : English
    Default : No
    Forced : No

    xxxxxxxxxxxxxxxxxxxxxxxxxxxxxxxxxxxxxxxxxxxxxxxxxx xxxxxxxxxxxxxxxxxxxxxxxxxxxxxxxx

    Rambo 2 แรมโบ้ นักรบเดนตาย First Blood Part II (1985) 1080p
    พากย์ ไทย อังกฤษ DTS ไทย อังกฤษ AC-3 บรรยาย อังกฤษ ไทย
    SS = https://www.mpic.ws/image/DJlnj

    การกลับมาอีกครั้งของสุดยอดวีรบุรุษสงครามภาคต่อที่ย ิ่งใหญ่กว่าเดิม ระเบิดความมันส์สุดขั้วบนสมรภูมิเวียดนามอีกครั้ง
    กับความอึด แกร่ง และ ระห่ำอย่างที่คุณคุ้นเคย... เมื่อ จอห์น แรมโบ้ (ซิลเวสเตอร์ สตอลโลน) ได้รับภารกิจสุดหินเพื่อแลกกับอิสรภาพของเขา
    ภารกิจที่นำเขากลับไปยังนรกบนดิน ที่เขาเรียกว่า บ้าน อีกครั้ง ภารกิจสุดโหดครั้งนี้ คือ การบุกเข้าไปช่วยเชลยที่ไม่มีใครยืนยันได้ว่ายังมีตั วตนอยู่ ณ ที่ใดที่หนึ่งในเวียดนาม
    หนึ่งเดียวที่จะทำภารกิจให้ลุล่วงมีแต่เพียงวีรบุรุษ สงครามอย่าง "แรมโบ้" เท่านั้น ไม่มีการช่วยเหลือ ไม่มีการรับรองสถานะใดๆ จากกองทัพ สิ่งเดียวที่เขาต้องทำก็คือ
    การพึ่งพาตัวเองเพื่อช่วยเหลือเหล่าเชลยศึกออกจากนรก บนดินแห่งนี้ให้จงได้ เพราะผลพวงจากความล้มเหลวหมายถึงความตายอย่างทรมาน ที่จะตามหลอกหลอนเขาไปชั่วกัปชั่วกัลป์

    General
    Unique ID : 202262159396712049966287119744157821205 (0x982A4662755665608D6681247E7F2915)
    Complete name : Rambo 2 แรมโบ้ นักรบเดนตาย First Blood Part II (1985) 1080p.mkv
    Format : Matroska
    Format version : Version 4 / Version 2
    File size : 8.87 GiB
    Duration : 1h 35mn
    Overall bit rate : 13.2 Mbps
    Encoded date : UTC 2017-06-05 03:14:06
    Writing application : mkvmerge v8.2.0 ( World of Adventure ) 64bit
    Writing library : libebml v1.3.1 + libmatroska v1.4.2
    DURATION : 01:35:58.847000000
    NUMBER_OF_FRAMES : 269945
    NUMBER_OF_BYTES : 161247147
    _STATISTICS_WRITING_APP : mkvmerge v8.2.0 ( World of Adventure ) 64bit
    _STATISTICS_WRITING_DATE_UTC : 2017-06-05 03:14:06
    _STATISTICS_TAGS : BPS DURATION NUMBER_OF_FRAMES NUMBER_OF_BYTES

    Video
    ID : 1
    Format : AVC
    Format/Info : Advanced Video Codec
    Format profile : [email protected]
    Format settings, CABAC : Yes
    Format settings, ReFrames : 5 frames
    Codec ID : V_MPEG4/ISO/AVC
    Duration : 1h 35mn
    Nominal bit rate : 10.3 Mbps
    Width : 1 920 pixels
    Height : 816 pixels
    Display aspect ratio : 2.35:1
    Frame rate mode : Constant
    Frame rate : 23.976 fps
    Color space : YUV
    Chroma subsampling : 4:2:0
    Bit depth : 8 bits
    Scan type : Progressive
    Bits/(Pixel*Frame) : 0.275
    Writing library : x264 core 59 r859M ce13bb6
    Encoding settings : cabac=1 / ref=5 / deblock=1:0:0 / analyse=0x3:0x113 / me=umh / subme=7 / me-prepass=0 / brdo=1 / mixed_ref=1 / me_range=16 / chroma_me=1 / trellis=1 / 8x8dct=1 / cqm=0 / deadzone=21,11 / chroma_qp_offset=0 / threads=6 / nr=0 / decimate=1 / mbaff=0 / fgo=0 / bframes=3 / b_pyramid=1 / b_adapt=1 / b_bias=0 / direct=1 / wpredb=1 / bime=1 / keyint=250 / keyint_min=25 / scenecut=40(pre) / rc=2pass / bitrate=10335 / ratetol=1.0 / rceq= blurCplx^(1-qComp) / qcomp=1.00 / qpmin=10 / qpmax=51 / qpstep=4 / cplxblur=20.0 / qblur=0.5 / ip_ratio=1.40 / pb_ratio=1.30 / aq=2:1.00
    Language : English
    Default : Yes
    Forced : No
    DURATION : 01:35:58.721000000
    NUMBER_OF_FRAMES : 138071
    NUMBER_OF_BYTES : 7433568721
    _STATISTICS_WRITING_APP : mkvmerge v8.2.0 ( World of Adventure ) 64bit
    _STATISTICS_WRITING_DATE_UTC : 2017-06-05 03:14:06
    _STATISTICS_TAGS : BPS DURATION NUMBER_OF_FRAMES NUMBER_OF_BYTES

    Audio #1
    ID : 2
    Format : DTS
    Format/Info : Digital Theater Systems
    Mode : 16
    Format settings, Endianness : Big
    Codec ID : A_DTS
    Duration : 1h 35mn
    Bit rate mode : Constant
    Bit rate : 755 Kbps
    Channel(s) : 6 channels
    Channel positions : Front: L C R, Side: L R, LFE
    Sampling rate : 48.0 KHz
    Bit depth : 24 bits
    Compression mode : Lossy
    Stream size : 518 MiB (6%)
    Title : Thai DTS
    Language : Thai
    Default : Yes
    Forced : Yes

    Audio #2
    ID : 3
    Format : DTS
    Format/Info : Digital Theater Systems
    Mode : 16
    Format settings, Endianness : Big
    Codec ID : A_DTS
    Duration : 1h 35mn
    Bit rate mode : Constant
    Bit rate : 1 509 Kbps
    Channel(s) : 6 channels
    Channel positions : Front: L C R, Side: L R, LFE
    Sampling rate : 48.0 KHz
    Bit depth : 24 bits
    Compression mode : Lossy
    Stream size : 1.01 GiB (11%)
    Title : Eng DTS
    Language : English
    Default : No
    Forced : No

    Audio #3
    ID : 4
    Format : AC-3
    Format/Info : Audio Coding 3
    Mode extension : CM (complete main)
    Format settings, Endianness : Big
    Codec ID : A_AC3
    Duration : 1h 35mn
    Bit rate mode : Constant
    Bit rate : 384 Kbps
    Channel(s) : 6 channels
    Channel positions : Front: L C R, Side: L R, LFE
    Sampling rate : 48.0 KHz
    Compression mode : Lossy
    Delay relative to video : 2s 300ms
    Stream size : 264 MiB (3%)
    Title : Thai AC-3
    Language : Thai
    Default : No
    Forced : No

    Audio #4
    ID : 5
    Format : AAC
    Format/Info : Advanced Audio Codec
    Format profile : LC
    Codec ID : A_AAC
    Duration : 1h 35mn
    Channel(s) : 6 channels
    Channel positions : Front: L C R, Side: L R, LFE
    Sampling rate : 48.0 KHz
    Compression mode : Lossy
    Title : Eng AAC
    Language : English
    Default : No
    Forced : No

    Text #1
    ID : 6
    Format : VobSub
    Muxing mode : zlib
    Codec ID : S_VOBSUB
    Codec ID/Info : Picture based subtitle format used on DVDs
    Title : Thai
    Language : Thai
    Default : No
    Forced : No

    Text #2
    ID : 7
    Format : VobSub
    Muxing mode : zlib
    Codec ID : S_VOBSUB
    Codec ID/Info : Picture based subtitle format used on DVDs
    Title : Thai
    Language : Thai
    Default : No
    Forced : No

    Text #3
    ID : 8
    Format : VobSub
    Muxing mode : zlib
    Codec ID : S_VOBSUB
    Codec ID/Info : Picture based subtitle format used on DVDs
    Title : Thai
    Language : Thai
    Default : No
    Forced : No

    Text #4
    ID : 9
    Format : PGS
    Muxing mode : zlib
    Codec ID : S_HDMV/PGS
    Codec ID/Info : Picture based subtitle format used on BDs/HD-DVDs
    Title : Thai PGS
    Language : Thai
    Default : No
    Forced : No

    Text #5
    ID : 10
    Format : PGS
    Muxing mode : zlib
    Codec ID : S_HDMV/PGS
    Codec ID/Info : Picture based subtitle format used on BDs/HD-DVDs
    Title : Thai PGS UNDER
    Language : Thai
    Default : No
    Forced : No

    Text #6
    ID : 11
    Format : VobSub
    Muxing mode : zlib
    Codec ID : S_VOBSUB
    Codec ID/Info : Picture based subtitle format used on DVDs
    Title : Eng
    Language : English
    Default : No
    Forced : No

    Text #7
    ID : 12
    Format : PGS
    Muxing mode : zlib
    Codec ID : S_HDMV/PGS
    Codec ID/Info : Picture based subtitle format used on BDs/HD-DVDs
    Title : Eng ENG
    Language : English
    Default : No
    Forced : No

    Text #8
    ID : 13
    Format : UTF-8
    Codec ID : S_TEXT/UTF8
    Codec ID/Info : UTF-8 Plain Text
    Title : Eng SRT
    Language : English
    Default : No
    Forced : No

    xxxxxxxxxxxxxxxxxxxxxxxxxxxxxxxxxxxxxxxxxxxxxxxxxx xxxxxxxxxxxxxxxxxxxxxxxxxxxxxxxx

    Rambo 3 แรมโบ้ นักรบเดนตาย (1988) 1080p
    พากย์ ไทย อังกฤษ DTS ไทย อังกฤษ AC-3 บรรยาย อังกฤษ ไทย
    SS = https://www.mpic.ws/image/DJ9Ji

    เมื่อ จอห์น แรมโบ้ ผู้ซึ่งซ่อนเร้นทั้งกายและใจ ให้ไกลจากสิ่งที่เขาเคยเป็นต้องรับภารกิจพิเศษอีกครั ้งอย่างหลีกเลี่ยงไม่ ได้
    เพราะภารกิจครั้งนี้คือ การไปช่วยสหายเก่าที่ถูกโซเวียตจับไป ในมหาสงครามแห่งอัฟกานิสถานที่ฝ่ายโซเวียตกุมความได้ เปรียบอย่างสุดขั้ว
    เขาต้องฝ่าสมรภูมินรกเข้าไปยังค่ายโซเวียตเพียงลำพัง ด้วยความอึด แกร่งและบ้า นี่คือมหาภพยนตร์ไตรภาคที่จะอยู่ในความทรงจำของคุณไป ตลอดกาล

    General
    Unique ID : 224730922679962022407363304453427516659 (0xA91199F18B2215E1906DFACAD79954F3)
    Complete name : Rambo 3 แรมโบ้ นักรบเดนตาย (1988) 1080p.mkv
    Format : Matroska
    Format version : Version 4 / Version 2
    File size : 8.91 GiB
    Duration : 1h 41mn
    Overall bit rate : 12.6 Mbps
    Encoded date : UTC 2017-06-05 04:16:40
    Writing application : mkvmerge v8.2.0 ( World of Adventure ) 64bit
    Writing library : libebml v1.3.1 + libmatroska v1.4.2
    DURATION : 01:41:36.085000000
    NUMBER_OF_FRAMES : 285754
    NUMBER_OF_BYTES : 170690390
    _STATISTICS_WRITING_APP : mkvmerge v8.2.0 ( World of Adventure ) 64bit
    _STATISTICS_WRITING_DATE_UTC : 2017-06-05 04:16:40
    _STATISTICS_TAGS : BPS DURATION NUMBER_OF_FRAMES NUMBER_OF_BYTES

    Video
    ID : 1
    Format : AVC
    Format/Info : Advanced Video Codec
    Format profile : [email protected]
    Format settings, CABAC : Yes
    Format settings, ReFrames : 5 frames
    Codec ID : V_MPEG4/ISO/AVC
    Duration : 1h 41mn
    Nominal bit rate : 9 660 Kbps
    Width : 1 920 pixels
    Height : 816 pixels
    Display aspect ratio : 2.35:1
    Frame rate mode : Constant
    Frame rate : 23.976 fps
    Color space : YUV
    Chroma subsampling : 4:2:0
    Bit depth : 8 bits
    Scan type : Progressive
    Bits/(Pixel*Frame) : 0.257
    Writing library : x264 core 67 r1134M b8808bf
    Encoding settings : cabac=1 / ref=5 / deblock=1:0:0 / analyse=0x3:0x133 / me=umh / subme=7 / psy_rd=1.0:0.0 / mixed_ref=1 / me_range=16 / chroma_me=1 / trellis=1 / 8x8dct=1 / cqm=0 / deadzone=21,11 / chroma_qp_offset=-2 / threads=3 / nr=0 / decimate=1 / mbaff=0 / bframes=3 / b_pyramid=1 / b_adapt=1 / b_bias=0 / direct=1 / wpredb=1 / keyint=250 / keyint_min=25 / scenecut=40 / rc=2pass / bitrate=9660 / ratetol=1.0 / qcomp=0.60 / qpmin=10 / qpmax=51 / qpstep=4 / cplxblur=20.0 / qblur=0.5 / ip_ratio=1.40 / pb_ratio=1.30 / aq=1:1.00
    Language : English
    Default : Yes
    Forced : No
    DURATION : 01:41:36.017000000
    NUMBER_OF_FRAMES : 146158
    NUMBER_OF_BYTES : 7360349496
    _STATISTICS_WRITING_APP : mkvmerge v8.2.0 ( World of Adventure ) 64bit
    _STATISTICS_WRITING_DATE_UTC : 2017-06-05 04:16:40
    _STATISTICS_TAGS : BPS DURATION NUMBER_OF_FRAMES NUMBER_OF_BYTES

    Audio #1
    ID : 2
    Format : DTS
    Format/Info : Digital Theater Systems
    Mode : 16
    Format settings, Endianness : Big
    Codec ID : A_DTS
    Duration : 1h 41mn
    Bit rate mode : Constant
    Bit rate : 755 Kbps
    Channel(s) : 6 channels
    Channel positions : Front: L C R, Side: L R, LFE
    Sampling rate : 48.0 KHz
    Bit depth : 24 bits
    Compression mode : Lossy
    Delay relative to video : 8ms
    Stream size : 548 MiB (6%)
    Title : Thai DTS
    Language : Thai
    Default : Yes
    Forced : Yes

    Audio #2
    ID : 3
    Format : DTS
    Format/Info : Digital Theater Systems
    Mode : 16
    Format settings, Endianness : Big
    Codec ID : A_DTS
    Duration : 1h 41mn
    Bit rate mode : Constant
    Bit rate : 1 509 Kbps
    Channel(s) : 6 channels
    Channel positions : Front: L C R, Side: L R, LFE
    Sampling rate : 48.0 KHz
    Bit depth : 24 bits
    Compression mode : Lossy
    Stream size : 1.07 GiB (12%)
    Title : Eng DTS
    Language : English
    Default : No
    Forced : No

    Audio #3
    ID : 4
    Format : AC-3
    Format/Info : Audio Coding 3
    Mode extension : CM (complete main)
    Format settings, Endianness : Big
    Codec ID : A_AC3
    Duration : 1h 41mn
    Bit rate mode : Constant
    Bit rate : 384 Kbps
    Channel(s) : 6 channels
    Channel positions : Front: L C R, Side: L R, LFE
    Sampling rate : 48.0 KHz
    Compression mode : Lossy
    Stream size : 279 MiB (3%)
    Title : Thai AC-3
    Language : Thai
    Default : No
    Forced : No

    Audio #4
    ID : 5
    Format : AAC
    Format/Info : Advanced Audio Codec
    Format profile : LC
    Codec ID : A_AAC
    Duration : 1h 41mn
    Channel(s) : 6 channels
    Channel positions : Front: L C R, Side: L R, LFE
    Sampling rate : 48.0 KHz
    Compression mode : Lossy
    Title : Eng AAC
    Language : English
    Default : No
    Forced : No

    Text #1
    ID : 6
    Format : VobSub
    Muxing mode : zlib
    Codec ID : S_VOBSUB
    Codec ID/Info : Picture based subtitle format used on DVDs
    Title : Thai
    Language : Thai
    Default : No
    Forced : No

    Text #2
    ID : 7
    Format : VobSub
    Muxing mode : zlib
    Codec ID : S_VOBSUB
    Codec ID/Info : Picture based subtitle format used on DVDs
    Title : Thai
    Language : Thai
    Default : No
    Forced : No

    Text #3
    ID : 8
    Format : VobSub
    Muxing mode : zlib
    Codec ID : S_VOBSUB
    Codec ID/Info : Picture based subtitle format used on DVDs
    Title : Thai
    Language : Thai
    Default : No
    Forced : No

    Text #4
    ID : 9
    Format : PGS
    Muxing mode : zlib
    Codec ID : S_HDMV/PGS
    Codec ID/Info : Picture based subtitle format used on BDs/HD-DVDs
    Title : Thai PGS
    Language : Thai
    Default : No
    Forced : No

    Text #5
    ID : 10
    Format : PGS
    Muxing mode : zlib
    Codec ID : S_HDMV/PGS
    Codec ID/Info : Picture based subtitle format used on BDs/HD-DVDs
    Title : Thai PGS UNDER
    Language : Thai
    Default : No
    Forced : No

    Text #6
    ID : 11
    Format : VobSub
    Muxing mode : zlib
    Codec ID : S_VOBSUB
    Codec ID/Info : Picture based subtitle format used on DVDs
    Title : Eng
    Language : English
    Default : No
    Forced : No

    Text #7
    ID : 12
    Format : PGS
    Muxing mode : zlib
    Codec ID : S_HDMV/PGS
    Codec ID/Info : Picture based subtitle format used on BDs/HD-DVDs
    Title : Eng PGS
    Language : English
    Default : No
    Forced : No

    Text #8
    ID : 13
    Format : UTF-8
    Codec ID : S_TEXT/UTF8
    Codec ID/Info : UTF-8 Plain Text
    Title : Eng SRT
    Language : English
    Default : No
    Forced : No

    Text #9
    ID : 14
    Format : UTF-8
    Codec ID : S_TEXT/UTF8
    Codec ID/Info : UTF-8 Plain Text
    Title : Dutch
    Language : Dutch
    Default : No
    Forced : No

    Text #10
    ID : 15
    Format : UTF-8
    Codec ID : S_TEXT/UTF8
    Codec ID/Info : UTF-8 Plain Text
    Title : French
    Language : French
    Default : No
    Forced : No

    Text #11
    ID : 16
    Format : UTF-8
    Codec ID : S_TEXT/UTF8
    Codec ID/Info : UTF-8 Plain Text
    Title : German
    Language : German
    Default : No
    Forced : No

    Text #12
    ID : 17
    Format : UTF-8
    Codec ID : S_TEXT/UTF8
    Codec ID/Info : UTF-8 Plain Text
    Title : Danish
    Language : Danish
    Default : No
    Forced : No

    Text #13
    ID : 18
    Format : UTF-8
    Codec ID : S_TEXT/UTF8
    Codec ID/Info : UTF-8 Plain Text
    Title : Finnish
    Language : Finnish
    Default : No
    Forced : No

    Text #14
    ID : 19
    Format : UTF-8
    Codec ID : S_TEXT/UTF8
    Codec ID/Info : UTF-8 Plain Text
    Title : Swedish
    Language : Swedish
    Default : No
    Forced : No

    Text #15
    ID : 20
    Format : UTF-8
    Codec ID : S_TEXT/UTF8
    Codec ID/Info : UTF-8 Plain Text
    Title : Norwegian
    Language : Norwegian
    Default : No
    Forced : No

    Text #16
    ID : 21
    Format : UTF-8
    Codec ID : S_TEXT/UTF8
    Codec ID/Info : UTF-8 Plain Text
    Title : Portuguese
    Language : Portuguese
    Default : No
    Forced : No

    Text #17
    ID : 22
    Format : UTF-8
    Codec ID : S_TEXT/UTF8
    Codec ID/Info : UTF-8 Plain Text
    Title : Spanish
    Language : Spanish
    Default : No
    Forced : No

    Menu
    00:00:00.000 : en:00:00:00.000
    00:09:12.761 : en:00:09:12.761
    00:14:30.870 : en:00:14:30.870
    00:22:07.952 : en:00:22:07.952
    00:30:15.814 : en:00:30:15.814
    00:39:41.588 : en:00:39:41.588
    00:48:49.760 : en:00:48:49.760
    00:56:26.008 : en:00:56:26.008
    01:05:32.345 : en:01:05:32.345
    01:14:41.102 : en:01:14:41.102
    01:24:09.002 : en:01:24:09.002
    01:31:47.711 : en:01:31:47.711

    xxxxxxxxxxxxxxxxxxxxxxxxxxxxxxxxxxxxxxxxxxxxxxxxxx xxxxxxxxxxxxxxxxxxxxxxxxxxxxxxxx

    Rambo 4 แรมโบ้ นักรบพันธุ์เดือด (2008) Theatrical Cut 1080p
    พากย์ อังกฤษ DTS พากย์ อังกฤษ ไทย AC-3 บรรยาย อังกฤษ ไทย
    SS = https://www.mpic.ws/image/DJdN6

    20 ปีหลังจาก"จอห์น แรมโบ้" (ซิลเวสเตอร์ สตอลโลน) เก็บตัวอยู่อย่างสันโดษอยู่ทางภาคเหนือของประเทศไทย
    ที่ซึ่งเขาทำงานอยู่บนเรือบดลำหนึ่งที่ล่องอยู่ในแม่ น้ำสาละวิน ใกล้ๆ กับชายแดนไทย-พม่า ความขัดแย้งระหว่างพม่าและชนเผ่ากะเหรี่ยง
    ซึ่งถือเป็นสงครามกลางเมืองที่กินเวลายาวนานที่สุดใน โลก ก้าวสู่ปีที่ 60 แต่แรมโบ้ ผู้ใช้ชีวิตอย่างสันโดษอยู่ในภูเขาที่ปกคลุมไปด้วยป่ า คอยตกปลา
    และจับงูพิษไปขาย เลิกชีวิตที่ต้องต่อสู้มานาน แม้ว่าจะมีทั้งหน่วยแพทย์ พวกกบฏ และผู้อพยพเดินทางผ่านไปในภูมิภาคที่แตกแยกไปด้วยเพล ิงสงคราม
    ทุกอย่างเปลี่ยนแปลงไปเมื่อกลุ่มมิชชันนารี่ต้องการ “ไกด์แม่น้ำชาวอเมริกัน” เมื่อซาร่าห์ (จูลี่ เบนซ์) และไมเคิล เบอร์เน็ตต์ (พอล ชูลซี่) ติดต่อมาหาแรมโบ้
    พวกเขาอธิบายว่าเพราะการเดินทางไปยังค่ายผู้อพยพเมื่ อปีที่แล้ว ทางกองกำลังทหารพม่าได้วางกับระเบิดเอาไว้ตลอดเส้นทา ง ทำให้มีอันตรายมากไปกับการเดินทางทางบก
    พวกเขาขอให้แรมโบ้เป็นไกด์นำทางพวกเขาล่องไปตามแม่น้ ำสาละวิน และส่งพวกเขาขึ้นฝั่ง เพื่อให้พวกเขาสามารถนำผลิตภัณฑ์ยา อาหาร
    และคัมภีร์ไบเบิ้ลไปส่งให้กับชนเผ่ากะเหรี่ยงได้ ในตอนแรก แรมโบ้ปฏิเสธที่จะเดินทางข้ามไปยังฝั่งพม่า แต่สุดท้าย เขาตกลงที่จะพาคนกลุ่มนี้ไป โดยจะส่งซาร่าห์ , ไมเคิล
    และเจ้าหน้าที่บรรเทาทุกข์คนอื่นๆ ณ จุดที่มีการกำหนดเอาไว้ล่วงหน้า ไม่ถึงสองอาทิตย์ต่อมา บาทหลวงอาร์เธอร์ มาร์ช (เคน ฮาวเวิร์ด)
    เดินทางมาหาแรมโบ้และบอกเขาว่ากลุ่มมิชชันนารี่ไม่ได ้เดินทางกลับมา เขาจำนองบ้านและระดมเงินจากผู้ศรัทธาจากโบสถ์ของเขาเ พื่อนำเงินมาจ้างกลุ่ม ทหารรับจ้าง
    (แกรห์ม แม็คทาวิช , แมทธิว มาร์สเด้น , ทิม กัง , รีย์ กัลเลกอส , เจก ลา บ็อทซ์) ให้นำตัวกลุ่มมิชชันนารี่กลับมา แรมโบ้ถามว่ากลุ่มมิชชันนารี่ยังมีชีวิตอยู่หรือไม่
    มาร์ชตอบว่ามีคนพบเห็นพวกเขาโดนคุมขังอยู่ในค่ายทหาร พม่าแห่งหนึ่ง แม้จะเห็นได้ชัดว่าแรมโบ้ลังเลที่จะเข้าไปเกี่ยวข้อง กับความรุนแรงและความ ขัดแย้ง
    แต่เขารู้ดีว่าเขาต้องยื่นมือเข้าไปช่วย และตกลงใจที่จะพากลุ่มทหารรับจ้างล่องไปตามแม่น้ำ เข้าสู่เขตสงคราม สิ่งที่ติดตามมาก็คือการก้าวสู่นรกบนดิน

    General
    Unique ID : 173307483698666105007634270104795409270 (0x8261CEA78DBE7CB0B8C0FA68CD56EB76)
    Complete name : Rambo 4 แรมโบ้ นักรบพันธุ์เดือด (2008) Theatrical Cut 1080p.mkv
    Format : Matroska
    Format version : Version 4 / Version 2
    File size : 8.33 GiB
    Duration : 1h 31mn
    Overall bit rate : 13.0 Mbps
    Encoded date : UTC
    Writing application : mkvmerge v8.2.0 ( World of Adventure ) 64bit
    Writing library : Lavf55.12.0
    DURATION : 01:31:31.565000000
    NUMBER_OF_FRAMES : 131666
    NUMBER_OF_BYTES : 7010657871
    _STATISTICS_WRITING_APP : mkvmerge v8.2.0 ( World of Adventure ) 64bit
    _STATISTICS_WRITING_DATE_UTC : 2016-08-31 01:14:19
    _STATISTICS_TAGS : BPS DURATION NUMBER_OF_FRAMES NUMBER_OF_BYTES

    Video
    ID : 1
    Format : AVC
    Format/Info : Advanced Video Codec
    Format profile : [email protected]
    Format settings, CABAC : Yes
    Format settings, ReFrames : 4 frames
    Codec ID : V_MPEG4/ISO/AVC
    Duration : 1h 31mn
    Bit rate : 10.2 Mbps
    Width : 1 920 pixels
    Height : 800 pixels
    Display aspect ratio : 2.40:1
    Frame rate mode : Constant
    Frame rate : 23.976 fps
    Color space : YUV
    Chroma subsampling : 4:2:0
    Bit depth : 8 bits
    Scan type : Progressive
    Bits/(Pixel*Frame) : 0.277
    Stream size : 6.38 GiB (77%)
    Writing library : x264 core 148 r2694 3b70645
    Encoding settings : cabac=1 / ref=4 / deblock=1:-2:-2 / analyse=0x3:0x133 / me=umh / subme=9 / psy=1 / psy_rd=1.00:0.00 / mixed_ref=1 / me_range=24 / chroma_me=1 / trellis=2 / 8x8dct=1 / cqm=0 / deadzone=21,11 / fast_pskip=1 / chroma_qp_offset=-2 / threads=6 / lookahead_threads=1 / sliced_threads=0 / nr=0 / decimate=1 / interlaced=0 / bluray_compat=0 / constrained_intra=0 / bframes=3 / b_pyramid=2 / b_adapt=2 / b_bias=0 / direct=3 / weightb=1 / open_gop=0 / weightp=2 / keyint=250 / keyint_min=23 / scenecut=40 / intra_refresh=0 / rc_lookahead=50 / rc=2pass / mbtree=1 / bitrate=10216 / ratetol=1.0 / qcomp=0.60 / qpmin=0 / qpmax=69 / qpstep=4 / cplxblur=20.0 / qblur=0.5 / ip_ratio=1.40 / aq=1:1.00
    Language : English
    Default : Yes
    Forced : No

    Audio #1
    ID : 2
    Format : AC-3
    Format/Info : Audio Coding 3
    Mode extension : CM (complete main)
    Format settings, Endianness : Big
    Codec ID : A_AC3
    Duration : 1h 31mn
    Bit rate mode : Constant
    Bit rate : 640 Kbps
    Channel(s) : 6 channels
    Channel positions : Front: L C R, Side: L R, LFE
    Sampling rate : 48.0 KHz
    Compression mode : Lossy
    Stream size : 419 MiB (5%)
    Title : thai AC-3
    Language : Thai
    Default : Yes
    Forced : No
    DURATION : 01:31:31.520000000
    NUMBER_OF_FRAMES : 171610
    NUMBER_OF_BYTES : 439321600
    _STATISTICS_WRITING_APP : mkvmerge v8.2.0 ( World of Adventure ) 64bit
    _STATISTICS_WRITING_DATE_UTC : 2016-08-31 01:14:19
    _STATISTICS_TAGS : BPS DURATION NUMBER_OF_FRAMES NUMBER_OF_BYTES

    Audio #2
    ID : 3
    Format : DTS
    Format/Info : Digital Theater Systems
    Mode : 16
    Format settings, Endianness : Big
    Codec ID : A_DTS
    Duration : 1h 31mn
    Bit rate mode : Constant
    Bit rate : 1 509 Kbps
    Channel(s) : 6 channels
    Channel positions : Front: L C R, Side: L R, LFE
    Sampling rate : 48.0 KHz
    Bit depth : 24 bits
    Compression mode : Lossy
    Stream size : 988 MiB (12%)
    Title : Eng DTS
    Language : English
    Default : No
    Forced : No
    DURATION : 01:20:01.126000000
    NUMBER_OF_FRAMES : 2338
    NUMBER_OF_BYTES : 11935481
    _STATISTICS_WRITING_APP : mkvmerge v8.2.0 ( World of Adventure ) 64bit
    _STATISTICS_WRITING_DATE_UTC : 2016-08-31 01:14:19
    _STATISTICS_TAGS : BPS DURATION NUMBER_OF_FRAMES NUMBER_OF_BYTES

    Audio #3
    ID : 4
    Format : AC-3
    Format/Info : Audio Coding 3
    Mode extension : CM (complete main)
    Format settings, Endianness : Big
    Codec ID : A_AC3
    Duration : 1h 31mn
    Bit rate mode : Constant
    Bit rate : 640 Kbps
    Channel(s) : 6 channels
    Channel positions : Front: L C R, Side: L R, LFE
    Sampling rate : 48.0 KHz
    Compression mode : Lossy
    Delay relative to video : 78ms
    Stream size : 419 MiB (5%)
    Title : Eng AC-3
    Language : English
    Default : No
    Forced : No

    Text #1
    ID : 5
    Format : VobSub
    Muxing mode : zlib
    Codec ID : S_VOBSUB
    Codec ID/Info : Picture based subtitle format used on DVDs
    Title : thai
    Language : Thai
    Default : No
    Forced : No

    Text #2
    ID : 6
    Format : UTF-8
    Codec ID : S_TEXT/UTF8
    Codec ID/Info : UTF-8 Plain Text
    Title : Eng
    Language : English
    Default : No
    Forced : No
    DURATION : 01:19:20.668000000
    NUMBER_OF_FRAMES : 958
    NUMBER_OF_BYTES : 3960756
    _STATISTICS_WRITING_APP : mkvmerge v8.2.0 ( World of Adventure ) 64bit
    _STATISTICS_WRITING_DATE_UTC : 2016-08-31 01:14:19
    _STATISTICS_TAGS : BPS DURATION NUMBER_OF_FRAMES NUMBER_OF_BYTES

    Text #3
    ID : 7
    Format : PGS
    Muxing mode : zlib
    Codec ID : S_HDMV/PGS
    Codec ID/Info : Picture based subtitle format used on BDs/HD-DVDs
    Title : Eng comm
    Language : English
    Default : No
    Forced : No

    Text #4
    ID : 8
    Format : PGS
    Muxing mode : zlib
    Codec ID : S_HDMV/PGS
    Codec ID/Info : Picture based subtitle format used on BDs/HD-DVDs
    Title : Hindi
    Language : Hindi
    Default : No
    Forced : No



    1
    http://cornfile.com/cptw06ghstyy
    2
    http://cornfile.com/nibtkuuedis5
    3
    http://cornfile.com/t83h3g8fvgii
    4
    http://cornfile.com/r7be7e5k44xc

  2. The Following User Says Thank You to Duckload.us For This Useful Post:

    noi54 (01-13-2018)

+ ตอบกลับกระทู้

ข้อมูลกระทู้

Users Browsing this Thread

ในขณะนี้มี 1 ท่านดูกระทู้อยู่. (0 สมาชิกและ 1 ผู้เยี่ยมชม)

     

กฎการโพสต์ข้อความ

  • ท่าน ไม่สามารถ ตั้งกระทู้ใหม่ได้
  • ท่าน ไม่สามารถ ตอบกระทู้ได้
  • ท่าน ไม่สามารถ แนบไฟล์ได้
  • ท่าน ไม่สามารถ แก้ไขข้อความโพสต์ได้
  • BB code สถานะ เปิด
  • Smilies สถานะ เปิด
  • [IMG] สถานะ เปิด
  • HTML สถานะ ปิด