+ ตอบกลับกระทู้
สรุปผลการค้นหา 1 ถึง 3 จากทั้งหมด 3
  1. #1
    Administrators รูปส่วนตัว Duckload.us
    สมัครเมื่อ
    Dec 2010
    โพสต์
    108,653
    Thanks
    7
    Thanked 113,695 Times in 52,418 Posts

    Red face [ฝรั่ง]-[* เสียงไทยหายาก *] Willow (1988) | ศึกแม่มดมหัศจรรย์ [1080p พากย์ไทย 2.0 + อังกฤษ DTS 5.1] [บรรยายไทย + อังกฤษ] [พากย์ไทย + ซับไทย PGS คมชัด]



    http://www.imdb.com/title/tt0096446/

    เปิดจินตนาการแห่งโลกแฟนตาซีอันยิ่งใหญ่ กับการผนึกกำลังสร้างสรรค์โดย จอร์จ ลูคัส และผู้กำกับ รอน เฮาเวิร์ด พบสเปเชียลเอ็ฟเฟ็กต์ตระการตาฉากแอคชั่นชวนลุ้น และการต่อสู้ระหว่างความดีกับความชั่วอันเป็นสากล

    เมื่อวิลโลว์ อัฟกู๊ด(เวอร์วิค เดวิส) คนแคระหนุ่มผู้กล้าหาญ พบทารกน้อยที่ถูกทอดทิ้งลอยน้ำมาติดฝั่งระแวกหมู่บ้า นของเขา นับแต่นั่นวิลโลว์ต้องถลำเข้าสู่การผจญภัยในโลกแห่งเ วทมนต์และอันตรายอย่าง ไม่ทันตั้งตัว จากคำทำนายที่บอกว่าทารกผู้นี้คือผู้ที่จะทำให้ยุคอั นยิ่งใหญ่ของราชินีบา ฟมอร์ดา (ยีน มาร์ช) แม่มดผู้ชั่วร้ายต้องจบลง เวลานี้วิลโลว์ต้องเผชิญหน้ากับพลังแห่งมนต์ดำที่หมา ยทำลายทุกผู้คนที่ขวาง ทางราชินีจอมขมังเวทย์ โดยมีอัศวินหนุ่มผู้หนึ่ง (วัล คิลเมอร์) ต่อสู้เคียงข้างกับเขา

    Format : Matroska
    Format version : Version 2
    File size : 8.99 GiB
    Duration : 2 h 6 min
    Overall bit rate : 10.2 Mb/s
    Movie name : Willow.1988.1080p.DTS.BluRay.x264-joythun
    Encoded date : UTC 2017-06-19 15:49:22
    Writing application : mkvmerge v5.8.0 ( No Sleep / Pillow ) built on Sep 2 2012 15:37:04
    Writing library : libebml v1.2.3 + libmatroska v1.3.0

    Video
    ID : 1
    Format : AVC
    Format/Info : Advanced Video Codec
    Format profile : [email protected]
    Format settings, CABAC : Yes
    Format settings, ReFrames : 5 frames
    Codec ID : V_MPEG4/ISO/AVC
    Duration : 2 h 6 min
    Bit rate : 8 426 kb/s
    Width : 1 920 pixels
    Height : 800 pixels
    Display aspect ratio : 2.40:1
    Frame rate mode : Constant
    Frame rate : 23.976 (24000/1001) FPS
    Color space : YUV
    Chroma subsampling : 4:2:0
    Bit depth : 8 bits
    Scan type : Progressive
    Bits/(Pixel*Frame) : 0.229
    Stream size : 7.28 GiB (81%)
    Title : Willow.1988.1080p.DTS.BluRay.x264-joythun
    Writing library : x264 core 129 r2245 bc13772
    Encoding settings : cabac=1 / ref=5 / deblock=1:0:0 / analyse=0x3:0x133 / me=umh / subme=7 / psy=1 / psy_rd=1.00:0.00 / mixed_ref=1 / me_range=16 / chroma_me=1 / trellis=1 / 8x8dct=1 / cqm=0 / deadzone=21,11 / fast_pskip=0 / chroma_qp_offset=-2 / threads=18 / lookahead_threads=3 / sliced_threads=0 / nr=0 / decimate=1 / interlaced=0 / bluray_compat=0 / constrained_intra=0 / bframes=3 / b_pyramid=2 / b_adapt=1 / b_bias=0 / direct=1 / weightb=1 / open_gop=0 / weightp=2 / keyint=250 / keyint_min=23 / scenecut=40 / intra_refresh=0 / rc_lookahead=40 / rc=2pass / mbtree=1 / bitrate=8426 / ratetol=1.0 / qcomp=0.60 / qpmin=0 / qpmax=69 / qpstep=4 / cplxblur=20.0 / qblur=0.5 / ip_ratio=1.40 / aq=1:1.00
    Language : English
    Default : Yes
    Forced : Yes

    Audio #1
    ID : 2
    Format : AC-3
    Format/Info : Audio Coding 3
    Mode extension : CM (complete main)
    Format settings, Endianness : Big
    Codec ID : A_AC3
    Duration : 2 h 6 min
    Bit rate mode : Constant
    Bit rate : 224 kb/s
    Channel(s) : 2 channels
    Channel positions : Front: L R
    Sampling rate : 48.0 kHz
    Frame rate : 31.250 FPS (1536 spf)
    Compression mode : Lossy
    Delay relative to video : 10 s 500 ms
    Stream size : 202 MiB (2%)
    Title : THAI VCD 2.0 @ 224 Kbps
    Language : Thai
    Default : Yes
    Forced : Yes

    Audio #2
    ID : 3
    Format : DTS
    Format/Info : Digital Theater Systems
    Mode : 16
    Format settings, Endianness : Big
    Codec ID : A_DTS
    Duration : 2 h 6 min
    Bit rate mode : Constant
    Bit rate : 1 509 kb/s
    Channel(s) : 6 channels
    Channel positions : Front: L C R, Side: L R, LFE
    Sampling rate : 48.0 kHz
    Frame rate : 93.750 FPS (512 spf)
    Bit depth : 24 bits
    Compression mode : Lossy
    Stream size : 1.33 GiB (15%)
    Title : ENG DTS 5.1 @ 1510 Kbps
    Language : English
    Default : No
    Forced : No

    Text #1
    ID : 4
    Format : VobSub
    Codec ID : S_VOBSUB
    Codec ID/Info : Picture based subtitle format used on DVDs
    Title : THAI 480p DVD Master
    Language : Thai
    Default : No
    Forced : No

    Text #2
    ID : 5
    Format : VobSub
    Codec ID : S_VOBSUB
    Codec ID/Info : Picture based subtitle format used on DVDs
    Title : THAI 1080p
    Language : Thai
    Default : Yes
    Forced : Yes

    Text #3
    ID : 6
    Format : VobSub
    Codec ID : S_VOBSUB
    Codec ID/Info : Picture based subtitle format used on DVDs
    Title : THAI 1080p Yellow
    Language : Thai
    Default : No
    Forced : No

    Text #4
    ID : 7
    Format : VobSub
    Codec ID : S_VOBSUB
    Codec ID/Info : Picture based subtitle format used on DVDs
    Title : THAI 1080p Out
    Language : Thai
    Default : No
    Forced : No

    Text #5
    ID : 8
    Format : PGS
    Codec ID : S_HDMV/PGS
    Codec ID/Info : Picture based subtitle format used on BDs/HD-DVDs
    Title : THAI PGS 1080p
    Language : Thai
    Default : No
    Forced : No

    Text #6
    ID : 9
    Format : PGS
    Codec ID : S_HDMV/PGS
    Codec ID/Info : Picture based subtitle format used on BDs/HD-DVDs
    Title : THAI PGS 1080p Out
    Language : Thai
    Default : No
    Forced : No

    Text #7
    ID : 10
    Format : UTF-8
    Codec ID : S_TEXT/UTF8
    Codec ID/Info : UTF-8 Plain Text
    Title : ENG SRT
    Language : English
    Default : No
    Forced : No

    Menu
    00:00:00.000 : en:00:00:00.000
    00:02:38.158 : en:00:02:38.158
    00:05:43.552 : en:00:05:43.552
    00:09:57.847 : en:00:09:57.847
    00:13:58.588 : en:00:13:58.588
    00:16:23.691 : en:00:16:23.691
    00:23:45.549 : en:00:23:45.549
    00:26:09.735 : en:00:26:09.735
    00:30:47.846 : en:00:30:47.846
    00:34:29.609 : en:00:34:29.609
    00:37:27.829 : en:00:37:27.829
    00:39:36.791 : en:00:39:36.791
    00:42:08.943 : en:00:42:08.943
    00:44:02.807 : en:00:44:02.807
    00:46:39.213 : en:00:46:39.213
    00:49:20.958 : en:00:49:20.958
    00:54:38.567 : en:00:54:38.567
    01:01:17.465 : en:01:01:17.465
    01:03:36.021 : en:01:03:36.021
    01:07:25.333 : en:01:07:25.333
    01:09:58.069 : en:01:09:58.069
    01:13:37.955 : en:01:13:37.955
    01:17:11.585 : en:01:17:11.585
    01:24:37.322 : en:01:24:37.322
    01:26:49.663 : en:01:26:49.663
    01:29:22.148 : en:01:29:22.148
    01:34:06.933 : en:01:34:06.933
    01:36:46.592 : en:01:36:46.592
    01:39:34.760 : en:01:39:34.760
    01:41:55.234 : en:01:41:55.234
    01:43:59.942 : en:01:43:59.942
    01:47:38.786 : en:01:47:38.786
    01:52:00.672 : en:01:52:00.672
    01:54:48.965 : en:01:54:48.965
    01:58:33.565 : en:01:58:33.565
    02:00:44.279 : en:02:00:44.279









    Quote:
    พากย์ไทย 2.0 จาก VCD มาสเตอร์

    ซับไทยจาก DVD มาสเตอร์

    พากย์ไทย VCD มาสเตอร์เอื้อเฟื้อโดย เบิ๊ด เบิ๊ด




    Download: cornfile
    http://cornfile.com/9r11svdgke0d
    Download: fzfile
    http://fzfile.com/7r4dfh3uloi4

  2. #2
    Senior Member
    สมัครเมื่อ
    Jun 2012
    โพสต์
    1,227
    Thanks
    0
    Thanked 1 Time in 1 Post
    Willow (1988) | ศึกแม่มดมหัศจรรย์ [1080p พากย์ไทย 2.0 + อังกฤษ DTS 5.1] [บรรยายไทย + อังกฤษ]

  3. #3
    Senior Member
    สมัครเมื่อ
    Jun 2012
    โพสต์
    1,227
    Thanks
    0
    Thanked 1 Time in 1 Post
    ขอขอบคุณครับ

+ ตอบกลับกระทู้

ข้อมูลกระทู้

Users Browsing this Thread

ในขณะนี้มี 1 ท่านดูกระทู้อยู่. (0 สมาชิกและ 1 ผู้เยี่ยมชม)

     

กฎการโพสต์ข้อความ

  • ท่าน ไม่สามารถ ตั้งกระทู้ใหม่ได้
  • ท่าน ไม่สามารถ ตอบกระทู้ได้
  • ท่าน ไม่สามารถ แนบไฟล์ได้
  • ท่าน ไม่สามารถ แก้ไขข้อความโพสต์ได้
  • BB code สถานะ เปิด
  • Smilies สถานะ เปิด
  • [IMG] สถานะ เปิด
  • HTML สถานะ ปิด