+ ตอบกลับกระทู้
สรุปผลการค้นหา 1 ถึง 2 จากทั้งหมด 2
  1. #1
    Administrators รูปส่วนตัว Duckload.us
    สมัครเมื่อ
    Dec 2010
    โพสต์
    114,610
    Thanks
    7
    Thanked 120,930 Times in 54,360 Posts

    Question [ฝรั่ง]-City of Angels (1998) สัมผัสรักจากเทพ เสพซึ้งถึงวิญญาณ [email protected] • [พากย์ไทย 5.1 + อังกฤษ DTS] • [บรรยายไทย (pgs) + อังกฤษ] * เสียง,ซับความคมชัดสูง DVD Master -




    Quote:

    ผลงานการกำกับของ Brad Silberling จาก Casper นะครับ หนังก็เล่าถึงเรื่องราวของเทวดานัยน์ตาเศร้า เซธ (Nicolas Cage) ซึ่งคอยทำหน้าที่สังเกตมนุษย์ไปวันๆ แล้วอยู่มาวันหนึ่งชีวิตเดิมๆ แบบเทวดาของเขาก็เปลี่ยนไป เมื่อเขาได้เจอกับคุณหมอผ่าติดสาวสวย แม็กกี้ ไรซ์ (Meg Ryan) ซึ่งตามปกติแล้ว มนุษย์ทั่วๆ ไปจะมองไม่เห็นเทวดาอย่างเขาหรอกฮะ แต่ปรากฎว่าแม็กกี้ดันเห็นเขาขึ้นมา ทำให้เขาเริ่มสนใจในตัวคุณหมอคนนี้มากขึ้น แล้วในที่สุดเขาก็เริ่มสานสัมพันธ์กับเธอ จนทำให้สิ่งที่เราเรียกว่า “ความรัก” มันบังเกิดขึ้นมาจนได้



    Quote:

    General
    [email protected]
    Format : Matroska
    Format version : Version 4 / Version 2
    File size : 9.08 GiB
    Duration : 1 h 54 min
    Overall bit rate : 11.4 Mb/s
    Movie name : [email protected]
    Encoded date : UTC 2017-08-25 13:13:06
    Writing application : mkvmerge v15.0.0 ( Duel with the Devil ) 64-bit
    Writing library : libebml v1.3.5 + libmatroska v1.4.5

    Video
    ID : 1
    Format : AVC
    Format/Info : Advanced Video Codec
    Format profile : [email protected]
    Format settings, CABAC : Yes
    Format settings, ReFrames : 5 frames
    Codec ID : V_MPEG4/ISO/AVC
    Duration : 1 h 54 min
    Bit rate : 9 452 kb/s
    Width : 1 920 pixels
    Height : 800 pixels
    Display aspect ratio : 2.40:1
    Frame rate mode : Constant
    Frame rate : 23.976 (24000/1001) FPS
    Color space : YUV
    Chroma subsampling : 4:2:0
    Bit depth : 8 bits
    Scan type : Progressive
    Bits/(Pixel*Frame) : 0.257
    Stream size : 7.54 GiB (83%)
    Title : [email protected]
    Writing library : x264 core 140 r2377 1ca7bb9
    Encoding settings : cabac=1 / ref=5 / deblock=1:-3:-3 / analyse=0x3:0x113 / me=umh / subme=8 / psy=1 / psy_rd=1.00:0.00 / mixed_ref=1 / me_range=16 / chroma_me=1 / trellis=1 / 8x8dct=1 / cqm=0 / deadzone=21,11 / fast_pskip=1 / chroma_qp_offset=-2 / threads=6 / lookahead_threads=1 / sliced_threads=0 / nr=0 / decimate=1 / interlaced=0 / bluray_compat=0 / constrained_intra=0 / bframes=3 / b_pyramid=2 / b_adapt=2 / b_bias=0 / direct=3 / weightb=1 / open_gop=0 / weightp=2 / keyint=240 / keyint_min=24 / scenecut=40 / intra_refresh=0 / rc_lookahead=50 / rc=2pass / mbtree=1 / bitrate=9452 / ratetol=1.0 / qcomp=0.60 / qpmin=0 / qpmax=69 / qpstep=4 / cplxblur=20.0 / qblur=0.5 / ip_ratio=1.40 / aq=1:1.00
    Language : English
    Default : Yes
    Forced : Yes

    Audio #1
    ID : 2
    Format : AC-3
    Format/Info : Audio Coding 3
    Format settings, Endianness : Big
    Codec ID : A_AC3
    Duration : 1 h 54 min
    Bit rate mode : Constant
    Bit rate : 384 kb/s
    Channel(s) : 6 channels
    Channel positions : Front: L C R, Side: L R, LFE
    Sampling rate : 48.0 kHz
    Frame rate : 31.250 FPS (1536 spf)
    Bit depth : 16 bits
    Compression mode : Lossy
    Delay relative to video : 1 s 500 ms
    Stream size : 314 MiB (3%)
    Language : Thai
    Service kind : Complete Main
    Default : Yes
    Forced : Yes

    Audio #2
    ID : 3
    Format : DTS
    Format/Info : Digital Theater Systems
    Mode : 16
    Format settings, Endianness : Big
    Codec ID : A_DTS
    Duration : 1 h 54 min
    Bit rate mode : Constant
    Bit rate : 1 509 kb/s
    Channel(s) : 6 channels
    Channel positions : Front: L C R, Side: L R, LFE
    Sampling rate : 48.0 kHz
    Frame rate : 93.750 FPS (512 spf)
    Bit depth : 24 bits
    Compression mode : Lossy
    Stream size : 1.20 GiB (13%)
    Language : English
    Default : No
    Forced : No

    Text #1
    ID : 4
    Format : VobSub
    Muxing mode : zlib
    Codec ID : S_VOBSUB
    Codec ID/Info : Picture based subtitle format used on DVDs
    Duration : 1 h 47 min
    Bit rate : 4 581 b/s
    Count of elements : 1025
    Stream size : 3.51 MiB (0%)
    Language : Thai
    Default : Yes
    Forced : Yes

    Text #2
    ID : 5
    Format : VobSub
    Muxing mode : zlib
    Codec ID : S_VOBSUB
    Codec ID/Info : Picture based subtitle format used on DVDs
    Duration : 1 h 45 min
    Bit rate : 1 293 b/s
    Count of elements : 1025
    Stream size : 997 KiB (0%)
    Language : Thai
    Default : No
    Forced : No

    Text #3
    ID : 6
    Format : VobSub
    Muxing mode : zlib
    Codec ID : S_VOBSUB
    Codec ID/Info : Picture based subtitle format used on DVDs
    Duration : 1 h 47 min
    Bit rate : 4 568 b/s
    Count of elements : 1025
    Stream size : 3.50 MiB (0%)
    Language : Thai
    Default : No
    Forced : No

    Text #4
    ID : 7
    Format : VobSub
    Muxing mode : zlib
    Codec ID : S_VOBSUB
    Codec ID/Info : Picture based subtitle format used on DVDs
    Duration : 1 h 47 min
    Bit rate : 3 996 b/s
    Count of elements : 1025
    Stream size : 3.06 MiB (0%)
    Language : Thai
    Default : No
    Forced : No

    Text #5
    ID : 8
    Format : PGS
    Muxing mode : zlib
    Codec ID : S_HDMV/PGS
    Codec ID/Info : Picture based subtitle format used on BDs/HD-DVDs
    Duration : 1 h 47 min
    Bit rate : 19.1 kb/s
    Count of elements : 2050
    Stream size : 14.7 MiB (0%)
    Language : Thai
    Default : No
    Forced : No

    Text #6
    ID : 9
    Format : PGS
    Muxing mode : zlib
    Codec ID : S_HDMV/PGS
    Codec ID/Info : Picture based subtitle format used on BDs/HD-DVDs
    Duration : 1 h 47 min
    Bit rate : 17.0 kb/s
    Count of elements : 2050
    Stream size : 13.0 MiB (0%)
    Language : Thai
    Default : No
    Forced : No

    Text #7
    ID : 10
    Format : PGS
    Muxing mode : zlib
    Codec ID : S_HDMV/PGS
    Codec ID/Info : Picture based subtitle format used on BDs/HD-DVDs
    Duration : 1 h 47 min
    Bit rate : 17.0 kb/s
    Count of elements : 2052
    Stream size : 13.0 MiB (0%)
    Language : Thai
    Default : No
    Forced : No

    Text #8
    ID : 11
    Format : UTF-8
    Codec ID : S_TEXT/UTF8
    Codec ID/Info : UTF-8 Plain Text
    Duration : 1 h 45 min
    Bit rate : 34 b/s
    Count of elements : 1052
    Stream size : 26.5 KiB (0%)
    Language : English
    Default : No
    Forced : No

    Menu
    00:00:00.000 : en:00:00:00.000
    00:10:13.571 : en:00:10:13.571
    00:20:24.557 : en:00:20:24.557
    00:31:05.697 : en:00:31:05.697
    00:41:18.935 : en:00:41:18.935
    00:51:08.274 : en:00:51:08.274
    01:01:21.052 : en:01:01:21.052
    01:11:53.434 : en:01:11:53.434
    01:23:58.867 : en:01:23:58.867
    01:33:18.718 : en:01:33:18.718
    01:41:57.445 : en:01:41:57.445
    01:47:34.448 : en:01:47:34.448





    Download: cornfile
    http://cornfile.com/conbg1l1am6r
    Download: mekafile
    http://www.mekafile.com/dl.php?f=qFc64ebuzj3z

  2. The Following 2 Users Say Thank You to Duckload.us For This Useful Post:

    bigbang06 (08-31-2017), Wesker_TOT (02-06-2020)

  3. #2
    Senior Member
    สมัครเมื่อ
    Dec 2013
    โพสต์
    2,090
    Thanks
    4,010
    Thanked 0 Times in 0 Posts
    ขอบคุณครับ...

+ ตอบกลับกระทู้

ข้อมูลกระทู้

Users Browsing this Thread

ในขณะนี้มี 1 ท่านดูกระทู้อยู่. (0 สมาชิกและ 1 ผู้เยี่ยมชม)

     

กฎการโพสต์ข้อความ

  • ท่าน ไม่สามารถ ตั้งกระทู้ใหม่ได้
  • ท่าน ไม่สามารถ ตอบกระทู้ได้
  • ท่าน ไม่สามารถ แนบไฟล์ได้
  • ท่าน ไม่สามารถ แก้ไขข้อความโพสต์ได้
  • BB code สถานะ เปิด
  • Smilies สถานะ เปิด
  • [IMG] สถานะ เปิด
  • HTML สถานะ ปิด