+ ตอบกลับกระทู้
สรุปผลการค้นหา 1 ถึง 2 จากทั้งหมด 2
  1. #1
    Administrators รูปส่วนตัว Duckload.us
    สมัครเมื่อ
    Dec 2010
    โพสต์
    151,817
    Thanks
    7
    Thanked 158,780 Times in 69,420 Posts

    Exclamation [ฝรั่ง]-The Legend of 1900 (1998) ตำนานนายพันเก้า หัวใจรักจากท้องทะเล 1080i HDTV DTS [ซับ+เสียง - ไทย,อังกฤษ]-HDTV.DTS.1080i. [Modified]-[พากย์ไทย บรรยายไทย]









    Quote:
    The Legend of 1900 (1998) ตำนานนายพันเก้า หัวใจรักจากท้องทะเล
    พ.ศ. 2541 ‧ ภาพยนตร์ชีวิต/ภาพยนตร์อิสระ ‧ 2 ชม. 50 นาที
    ตำนานนายพันเก้า หัวใจรักจากท้องทะเล ภาพยนตร์สัญชาติอเมริกัน/อิตาเลียน นำแสดงโดย ทิม รอธ,
    พรุตต์ เทย์เลอร์ วินซ์, เมลานี เธียร์รี่, บิลล์ นันน์, คลาเรนซ์ วิลเลียมส์ ที่ 3 กำกับการแสดงและบทภาพยนตร์
    โดย จูเซปเป ทอร์นาทอเร
    ผู้กำกับ: จูเซปเป ทอร์นาทอเร
    ประพันธ์ดนตรีโดย: เอนนิโอ มอร์ริโคเน
    รางวัลที่ได้รับ: รางวัลลูกโลกทองคำ สาขาดนตรีประกอบภาพยนตร์ยอดเยี่ยม

    ทารกชายคนหนึ่งได้ถือกำเนิดขึ้นในเรือเดินสมุทรที่พา ผู้อพยพจากยุโรปเดินทางมาอเมริกาชื่อเดอะเวอร์จิเนีย
    (The Virginia) คนที่พบเขาเป็นเจ้าหน้าที่เติมเชื้อไฟในเรือเขาพบทาร กคนนี้ในตระกร้าที่วางอยู่บนชั้นโดยสาร
    ชั้นหนึ่ง ด้วยความสงสารจึงแอบเลี้ยงดูเขาอย่างลับๆ ในใต้ท้องเรือที่กว้างใหญ่ เขาตั้งชื่อเด็กชายคนนี้ว่า
    แดนนี่ บู้ดแมน ที.ดี.เลมอน 1900 แต่ใครๆกลับเรียกเขาสั้นๆว่า1900 ด้วยพรสวรรค์ที่เขาเองก็ตอบไม่ได้
    ทำให้เขาเติบโตขึ้นมาเป็นนักดนตรีที่ยิ่งใหญ่ เสียงเปียโนของเขาได้มอบความสำราญกับผู้โดยสารไม่น้อ ยกว่า
    3พันคนในแต่ละเที่ยวจำนวน5เที่ยวต่อปี



    General
    Unique ID : 189483490667565407058078495122296077044 (0x8E8D315F8F2AA7FEBCBE85600316FAF4)
    Complete name : D:Torrent DownloadUpload TorrentThe Legend of 1900 (1998)The Legend of 1900 (1998).mkv
    Format : Matroska
    Format version : Version 4 / Version 2
    File size : 9.73 GiB
    Duration : 1 h 59 min
    Overall bit rate : 11.6 Mb/s
    Encoded date : UTC 2014-06-19 06:42:29
    Writing application : Meteorite 0.11 Beta
    Writing library : Meteorite 0.11 Beta

    Video
    ID : 1
    Format : AVC
    Format/Info : Advanced Video Codec
    Format profile : [email protected]
    Format settings : 1 Ref Frames
    Format settings, CABAC : No
    Format settings, RefFrames : 1 frame
    Codec ID : V_MPEG4/ISO/AVC
    Duration : 1 h 59 min
    Bit rate : 9 458 kb/s
    Width : 1 904 pixels
    Height : 784 pixels
    Display aspect ratio : 2.40:1
    Frame rate mode : Constant
    Frame rate : 23.976 (24000/1001) FPS
    Color space : YUV
    Chroma subsampling : 4:2:0
    Bit depth : 8 bits
    Scan type : Progressive
    Bits/(Pixel*Frame) : 0.264
    Stream size : 7.78 GiB (80%)
    Writing library : x264 core 60 r900 a9af942
    Encoding settings : cabac=0 / ref=1 / deblock=0:0:0 / analyse=0x1:0 / me=dia / subme=1 / brdo=0 / mixed_ref=0 / me_range=8 / chroma_me=0 / trellis=0 / 8x8dct=0 / cqm=0 / deadzone=21,11 / chroma_qp_offset=0 / threads=3 / nr=0 / decimate=1 / mbaff=0 / bframes=0 / keyint=250 / keyint_min=25 / scenecut=40(pre) / rc=abr / bitrate=9458 / ratetol=1.0 / rceq= blurCplx^(1-qComp) / qcomp=1.00 / qpmin=10 / qpmax=51 / qpstep=4 / ip_ratio=1.40 / aq=2:1.00
    Default : Yes
    Forced : No

    Audio #1
    ID : 2
    Format : DTS
    Format/Info : Digital Theater Systems
    Mode : 16
    Format settings, Endianness : Big
    Codec ID : A_DTS
    Duration : 1 h 59 min
    Bit rate mode : Constant
    Bit rate : 755 kb/s
    Channel(s) : 6 channels
    Channel positions : Front: L C R, Side: L R, LFE
    Sampling rate : 48.0 kHz
    Frame rate : 93.750 FPS (512 SPF)
    Bit depth : 24 bits
    Compression mode : Lossy
    Delay relative to video : 4 s 500 ms
    Stream size : 646 MiB (6%)
    Title : Eng - DTS (delay 4500ms)
    Language : English
    Default : Yes
    Forced : No

    Audio #2
    ID : 3
    Format : AC-3
    Format/Info : Audio Coding 3
    Format settings, Endianness : Big
    Codec ID : A_AC3
    Duration : 1 h 59 min
    Bit rate mode : Constant
    Bit rate : 448 kb/s
    Channel(s) : 6 channels
    Channel positions : Front: L C R, Side: L R, LFE
    Sampling rate : 48.0 kHz
    Frame rate : 31.250 FPS (1536 SPF)
    Bit depth : 16 bits
    Compression mode : Lossy
    Delay relative to video : 4 s 500 ms
    Stream size : 383 MiB (4%)
    Title : Eng - AC3 (delay 4500ms)
    Language : English
    Service kind : Complete Main
    Default : No
    Forced : No

    Audio #3
    ID : 4
    Format : AC-3
    Format/Info : Audio Coding 3
    Format settings, Endianness : Big
    Codec ID : A_AC3
    Duration : 1 h 59 min
    Bit rate mode : Constant
    Bit rate : 448 kb/s
    Channel(s) : 6 channels
    Channel positions : Front: L C R, Side: L R, LFE
    Sampling rate : 48.0 kHz
    Frame rate : 31.250 FPS (1536 SPF)
    Bit depth : 16 bits
    Compression mode : Lossy
    Delay relative to video : 4 s 500 ms
    Stream size : 383 MiB (4%)
    Title : Thai - AC3 (delay 4500ms)
    Language : Thai
    Service kind : Complete Main
    Default : No
    Forced : No


    Audio #4
    ID : 5
    Format : AC-3
    Format/Info : Audio Coding 3
    Format settings, Endianness : Big
    Codec ID : A_AC3
    Duration : 1 h 59 min
    Bit rate mode : Constant
    Bit rate : 448 kb/s
    Channel(s) : 6 channels
    Channel positions : Front: L C R, Side: L R, LFE
    Sampling rate : 48.0 kHz
    Frame rate : 31.250 FPS (1536 SPF)
    Bit depth : 16 bits
    Compression mode : Lossy
    Stream size : 383 MiB (4%)
    Title : Russian
    Language : Russian
    Service kind : Complete Main
    Default : No
    Forced : No

    Text #1
    ID : 6
    Format : PGS
    Codec ID : S_HDMV/PGS
    Codec ID/Info : Picture based subtitle format used on BDs/HD-DVDs
    Title : Thai - PGS Ocr
    Language : Thai
    Default : Yes
    Forced : No

    Text #2
    ID : 7
    Format : PGS
    Codec ID : S_HDMV/PGS
    Codec ID/Info : Picture based subtitle format used on BDs/HD-DVDs
    Title : Thai - PGS
    Language : Thai
    Default : No
    Forced : No

    Text #3
    ID : 8
    Format : UTF-8
    Codec ID : S_TEXT/UTF8
    Codec ID/Info : UTF-8 Plain Text
    Title : Thai - SRT Ocr
    Language : Thai
    Default : No
    Forced : No

    Text #4
    ID : 9
    Format : VobSub
    Codec ID : S_VOBSUB
    Codec ID/Info : Picture based subtitle format used on DVDs
    Title : Thai - Sub/Idx 1080p
    Language : Thai
    Default : No
    Forced : No

    Text #5
    ID : 10
    Format : VobSub
    Codec ID : S_VOBSUB
    Codec ID/Info : Picture based subtitle format used on DVDs
    Title : Thai - Sub/Idx DVD (Delay 4500ms)
    Language : Thai
    Default : No
    Forced : No


    Text #6
    ID : 11
    Format : VobSub
    Codec ID : S_VOBSUB
    Codec ID/Info : Picture based subtitle format used on DVDs
    Title : Eng - Sub/Idx DVD (Delay 4500ms)
    Language : English
    Default : No
    Forced : No


    http://www.filecondo.com/dl.php?f=HJ176abvGoiB

  2. #2
    Senior Member
    สมัครเมื่อ
    Jul 2012
    โพสต์
    8,660
    Thanks
    0
    Thanked 0 Times in 0 Posts
    ขอบคุณมากจ้า

+ ตอบกลับกระทู้

ข้อมูลกระทู้

Users Browsing this Thread

ในขณะนี้มี 1 ท่านดูกระทู้อยู่. (0 สมาชิกและ 1 ผู้เยี่ยมชม)

     

กฎการโพสต์ข้อความ

  • ท่าน ไม่สามารถ ตั้งกระทู้ใหม่ได้
  • ท่าน ไม่สามารถ ตอบกระทู้ได้
  • ท่าน ไม่สามารถ แนบไฟล์ได้
  • ท่าน ไม่สามารถ แก้ไขข้อความโพสต์ได้
  • BB code สถานะ เปิด
  • Smilies สถานะ เปิด
  • [IMG] สถานะ เปิด
  • HTML สถานะ ปิด