+ ตอบกลับกระทู้
สรุปผลการค้นหา 1 ถึง 2 จากทั้งหมด 2
  1. #1
    Administrators รูปส่วนตัว Duckload.us
    สมัครเมื่อ
    Dec 2010
    โพสต์
    135,849
    Thanks
    7
    Thanked 140,639 Times in 61,727 Posts

    Lightbulb [จีน]-TVB HD [ซีรี่ย์เก่าโมใหม่แบบ 720P ชัดแจ่ม] มรสุมชีวิต ลิขิตพระจันทร์(Moonlight Resonance)-HDTV.H.264.720p. [From TV]-[พากย์ไทย] [แถมบรรยายจีน]




    ชื่อจีน 溏 心 風 暴 之 家 好 月 圓 )
    ชื่ออังกฤษ :Moonlight Resonance
    ชื่อไทย : มรสุมชีวิต ลิขิตพระจันทร์
    ประเภท :ดราม้าเข้มข้นแย่งลูกกัน
    จำนวนตอน :40
    ออกอากาศที่ฮ่องกง : releaserelease 28 July – 21 September 2008
    เรทติ้ง : เฉลี่ย 45 สูงสุด 50

    นำแสดงโดย::หลี่ซือฉี,เซี่ยหยี่,หมีเซียะ,หลินฟง,เฉินฝ่าลา,หยา งอี้,หลี่เซียงฉิน,กวนซิวอิ่ง, เฉินเห้า,ฉีจื่อซาน, หวงซ่งเจ๋อ

    นักแสดงในเรื่อง
    หลี่ซือฉี

    เซี่ยหยี่

    หมีเซียะ

    เฉินฝ่าลา

    หยางอี้

    เฉินเห้า

    กวนซิวอิ่ง

    หลี่เซียงฉิน

    หลีเย่าเสียง

    หลี่นั่วอี้

    ฉีจื่อซาน

    หลินฟง

    จงเจียซิน

    หวงซ่งเจ๋อ




    มรสุมไม่ทันสงบ เมฆหมอกก่อตัวเป็นมรสุมใหม่
    ไม่มีสิ่งใหม่ภายใต้แสงจันทร์ ชีวิตสวยงาม มีหรือจะปราศจากมรสุม
    กันไท่จู่ (เซี่ยหยี่) และจงเสี้ยวเหอ (หลี่ซือฉี) สองสามีภรรยาต่างอุทิศแรงกายแรงใจ ช่วยกันทำให้
    ร้านขนมไหว้พระจันทร์สุขสันต์เป็นที่รู้จักมีชื่อเสี ยงเลื่อง ลือไปทั่ว แต่แล้วสิ่งที่ทุกคนคาดคิดไม่ถึง
    กลับบังเกิดขึ้น เมื่อกันไท่จู่และหยิ่นหงเป็นชู้กัน ทำให้จงเสี้ยวเหออดรนทนไม่ได้ถึงกับหย่าขาดจากกันไท่ จู่
    โดยได้พาลูกๆ ได้แก่ กันหยงห่าว (หลินฟง), กันหย่งชิ่ง (เฉินฝ่าลา) และซุนฮ่าวเยี่ย (หยางอี้)
    ลูกบุญธรรมออกไปเปิดร้านใหม่

    หลังจากที่หยิ่นหงเข้าบ้านสกุลกันอย่างเต็มตัวแล้ว ก็พยายามผูกใจผู้คนโดยทำทุกสิ่งทุกอย่างเพื่อ
    เอาอกเอาใจเสอจินลี่(หลี่เซียง ฉิน) แม่สามี ไม่เพียงเท่านั้น ยังวางแผนให้ลูกชายของเธอ และกันไท่จู่
    ผิดใจกัน เพื่อออกมาตั้งร้านใหม่อีกด้วย ร้านสาขาถูกเปิดสาขาแล้วสาขาเล่า สร้างความไม่พอใจ
    ให้จงเสี้ยวซา (กวานจี๋อิง) น้องสาวของจงเสี้ยวเหอเป็นอันมาก จงเสี้ยวซาปฏิญาณว่า จะทำทุกวิถีทาง
    เพื่อช่วงชิงยี่ห้อร้าน ซึ่งตกทอดจากบรรพบุรุษกลับคืนมาให้ได้ ด้วยเหตุนี้เอง
    จึงทำให้ความบาดหมางระหว่างจงเสี้ยวเหอและหยิ่นหงลุก ลามใหญ่โตขึ้นมา

    มรสุมร้านไม่ทันสงบ ในเวลาเดียวกัน ลูกๆซึ่งเติบโตเป็นหนุ่มเป็นสาวก็ทำให้จงเสี้ยวซา
    ต้องอ่อนอกอ่อนใจกัน หย่งเจีย(เฉินหาว) ลูกชายคนโตกลับสนอกสนใจเล่นหุ้น โดยไม่เหลียวแลกิจการ
    ร้านแม้แต่น้อย ทั้งยังมีความสัมพันธ์กับลู่เจียเหม่ย (สีจื่อซาน) ลูกพี่ลูกน้องและซุนฮ่าวเยี่ย
    ในคราวเดียวกันอีกด้วย อีกด้านหนึ่งนั้น กันหยงห่าวสืบสานเจตนารมณ์ของพ่อ โดยทำงานอย่างหนัก
    เพื่ออาชิว (จงเจียซิน) หญิงสาวอันเป็นที่รัก น่าเสียดายอาชิวกลับมีใจให้แพทย์หนุ่มหลิงจื้อซิ่น (หวงจงเจ๋อ)

    จงเสี้ยวเหอบุกน้ำลุยไฟโดยไม่หวาดหวั่นต่อความยากลำบ ากเพื่อครอบครัว แต่หยิ่นหงกลับใช้เล่ห์เพทุบาย
    เพียงเพื่อแสวงหาประโยชน์ส่วนตัวเท่านั้น สร้างความลำบากใจให้กันไท่จู่ซึ่งเป็นคนกลางยิ่งนัก
    จนกระทั่งวันหนึ่งเมื่อร้านประสบปัญหา ปัญหาที่เกิดขึ้นจึงทดสอบจิตใจ
    สัมพันธภาพและความรักที่มีต่อกันได้เป็นอย่างดี เรื่องราวจะเป็นอย่างไรต้องติดตามชม

    มาคุยกันดีกว่า!!! ::[SPOILER]
    http://topicstock.pantip.com/chalerm.../A7386740.html




    General
    Unique ID : 185827722273333976797785710434884309389 (0x8BCD1E1352BE4DAA89CE13BF80ECD18D)
    Complete name : D:Moonlight.Resonance.E01.720p.HDTV.x264.mkv
    Format : Matroska
    Format version : Version 2
    File size : 1.01 GiB
    Duration : 44 min 51 s
    Overall bit rate mode : Variable
    Overall bit rate : 3 238 kb/s
    Encoded date : UTC 2010-07-30 13:42:21
    Writing application : mkvmerge v3.4.0 ( Rapunzel ) built on May 15 2010 09:38:20
    Writing library : libebml v0.8.0 + libmatroska v0.9.0

    Video
    ID : 1
    Format : AVC
    Format/Info : Advanced Video Codec
    Format profile : [email protected]
    Format settings, CABAC : Yes
    Format settings, RefFrames : 3 frames
    Codec ID : V_MPEG4/ISO/AVC
    Duration : 44 min 51 s
    Bit rate mode : Variable
    Bit rate : 2 982 kb/s
    Maximum bit rate : 38.0 Mb/s
    Width : 1 280 pixels
    Height : 720 pixels
    Display aspect ratio : 16:9
    Frame rate mode : Constant
    Frame rate : 25.000 FPS
    Color space : YUV
    Chroma subsampling : 4:2:0
    Bit depth : 8 bits
    Scan type : Progressive
    Bits/(Pixel*Frame) : 0.129
    Stream size : 957 MiB (92%)
    Title : X264
    Default : Yes
    Forced : No

    Audio
    ID : 2
    Format : AC-3
    Format/Info : Audio Coding 3
    Format settings, Endianness : Big
    Codec ID : A_AC3
    Duration : 44 min 51 s
    Bit rate mode : Constant
    Bit rate : 192 kb/s
    Channel(s) : 2 channels
    Channel positions : Front: L R
    Sampling rate : 48.0 kHz
    Frame rate : 31.250 FPS (1536 SPF)
    Bit depth : 16 bits
    Compression mode : Lossy
    Stream size : 61.6 MiB (6%)
    Title : Thai 2.0
    Language : Thai
    Service kind : Complete Main
    Default : Yes
    Forced : No
















    1
    http://www.filecondo.com/dl.php?f=6a239d1DXUmQ
    2
    http://www.filecondo.com/dl.php?f=S3ea6b1DXUnO
    3
    http://www.filecondo.com/dl.php?f=I3b3541DXUoN
    4
    http://www.filecondo.com/dl.php?f=wcad401DXUpK
    5
    http://www.filecondo.com/dl.php?f=0729671DXUqI
    6
    http://www.filecondo.com/dl.php?f=j655371DXUrH
    7
    http://www.filecondo.com/dl.php?f=f18c3c1DXUsE
    8
    http://www.filecondo.com/dl.php?f=h143101DXUtD
    9
    http://www.filecondo.com/dl.php?f=Z4c1541DXUuA
    10
    http://www.filecondo.com/dl.php?f=N092541DXUvz
    11
    http://www.filecondo.com/dl.php?f=0062841DXUwx
    12
    http://www.filecondo.com/dl.php?f=W933eb1DXUxv
    13
    http://www.filecondo.com/dl.php?f=O8ecaa1DXUyy
    14
    http://www.filecondo.com/dl.php?f=1f859e1DXUzr
    15
    http://www.filecondo.com/dl.php?f=073a2d1DXUAo
    16
    http://www.filecondo.com/dl.php?f=30e7ba1DXUBm
    17
    http://www.filecondo.com/dl.php?f=s350c81DXUCk
    18
    http://www.filecondo.com/dl.php?f=fd76d91DXUDj
    19
    http://www.filecondo.com/dl.php?f=N072f01DXUEh
    20
    http://www.filecondo.com/dl.php?f=75ddaf1DXUFf
    21
    http://www.filecondo.com/dl.php?f=U66c0e1DXUGd
    22
    http://www.filecondo.com/dl.php?f=I678b01DXUHl
    23
    http://www.filecondo.com/dl.php?f=80e8001DXUI9
    24
    http://www.filecondo.com/dl.php?f=dd27b81DXUJ7
    25
    http://www.filecondo.com/dl.php?f=s6a0cb1DXUK5
    26
    http://www.filecondo.com/dl.php?f=2403811DXUL3
    27
    http://www.filecondo.com/dl.php?f=D100381DXUM0
    28
    http://www.filecondo.com/dl.php?f=Seb61b1DXUMZ
    29
    http://www.filecondo.com/dl.php?f=V7c1261DXUNW
    30
    http://www.filecondo.com/dl.php?f=Heef031DXUOV
    31
    http://www.filecondo.com/dl.php?f=Hdc8c01DXUPU
    32
    http://www.filecondo.com/dl.php?f=hcb7891DXUQQ
    33
    http://www.filecondo.com/dl.php?f=h4a37b1DXURP
    34
    http://www.filecondo.com/dl.php?f=471f171DXUSM
    35
    http://www.filecondo.com/dl.php?f=oef5f01DXUTL
    36
    http://www.filecondo.com/dl.php?f=7983e11DXUUJ
    37
    http://www.filecondo.com/dl.php?f=c027571DXUVG
    38
    http://www.filecondo.com/dl.php?f=K8383f1DXUWE
    39
    http://www.filecondo.com/dl.php?f=781b441DXUXC
    40
    http://www.filecondo.com/dl.php?f=wa6be11DXUYA

  2. The Following User Says Thank You to Duckload.us For This Useful Post:

    gmr999 (10-06-2017)

  3. #2
    Junior Member
    สมัครเมื่อ
    Apr 2013
    โพสต์
    27
    Thanks
    0
    Thanked 0 Times in 0 Posts
    ไฟล์ที่ 1 โหลดไม่ได้แล้วครับ

+ ตอบกลับกระทู้

ข้อมูลกระทู้

Users Browsing this Thread

ในขณะนี้มี 1 ท่านดูกระทู้อยู่. (0 สมาชิกและ 1 ผู้เยี่ยมชม)

     

กฎการโพสต์ข้อความ

  • ท่าน ไม่สามารถ ตั้งกระทู้ใหม่ได้
  • ท่าน ไม่สามารถ ตอบกระทู้ได้
  • ท่าน ไม่สามารถ แนบไฟล์ได้
  • ท่าน ไม่สามารถ แก้ไขข้อความโพสต์ได้
  • BB code สถานะ เปิด
  • Smilies สถานะ เปิด
  • [IMG] สถานะ เปิด
  • HTML สถานะ ปิด