+ ตอบกลับกระทู้
สรุปผลการค้นหา 1 ถึง 5 จากทั้งหมด 5
  1. #1
    Administrators รูปส่วนตัว Duckload.us
    สมัครเมื่อ
    Dec 2010
    โพสต์
    108,455
    Thanks
    7
    Thanked 113,397 Times in 52,331 Posts

    Question [ฝรั่ง]-The Final Countdown (1980) ยุทธการป้อมบินนรก [email protected] [พากย์ไทย 5.1 + อังกฤษ DTS] - [บรรยายไทย PGS + อังกฤษ] *เสียง,ซับ DVD มาสเตอร์ **



    Quote:

    เรื่องราวของเรือรบขนเครื่องบินพลังงานนิวเคลียร์อัน ล้ำสมัยของอเมริกา ที่เดินทางผ่านพายุแห่งกาลเวลาทำให้ถูกส่งกลับไปในอด ีต ของปี 1941 ก่อนที่ญี่ปุ่นจะบุก Pearl Harbour เพียงสองวัน



    Quote:

    General
    [email protected]
    Format : Matroska
    Format version : Version 4 / Version 2
    File size : 8.30 GiB
    Duration : 1 h 42 min
    Overall bit rate : 11.6 Mb/s
    Movie name : [email protected]
    Encoded date : UTC 2017-09-21 19:40:50
    Writing application : mkvmerge v15.0.0 ( Duel with the Devil ) 64-bit
    Writing library : libebml v1.3.5 + libmatroska v1.4.5

    Video
    ID : 1
    Format : AVC
    Format/Info : Advanced Video Codec
    Format profile : [email protected]
    Format settings, CABAC : Yes
    Format settings, ReFrames : 5 frames
    Codec ID : V_MPEG4/ISO/AVC
    Duration : 1 h 42 min
    Bit rate : 9 577 kb/s
    Width : 1 920 pixels
    Height : 816 pixels
    Display aspect ratio : 2.35:1
    Frame rate mode : Constant
    Frame rate : 23.976 FPS
    Color space : YUV
    Chroma subsampling : 4:2:0
    Bit depth : 8 bits
    Scan type : Progressive
    Bits/(Pixel*Frame) : 0.255
    Stream size : 6.86 GiB (83%)
    Title : [email protected]
    Writing library : x264 core 65 r1046M 71d34b4
    Encoding settings : cabac=1 / ref=5 / deblock=1:-1:-1 / analyse=0x3:0x113 / me=umh / subme=7 / psy_rd=1.0:0.0 / mixed_ref=1 / me_range=16 / chroma_me=1 / trellis=2 / 8x8dct=1 / cqm=0 / deadzone=21,11 / chroma_qp_offset=-2 / threads=6 / nr=0 / decimate=1 / mbaff=0 / bframes=3 / b_pyramid=0 / b_adapt=2 / b_bias=0 / direct=3 / wpredb=1 / keyint=250 / keyint_min=25 / scenecut=40(pre) / rc=2pass / bitrate=9577 / ratetol=1.0 / qcomp=0.60 / qpmin=10 / qpmax=51 / qpstep=4 / cplxblur=20.0 / qblur=0.5 / vbv_maxrate=50000 / vbv_bufsize=50000 / ip_ratio=1.40 / pb_ratio=1.30 / aq=1:1.00
    Language : English
    Default : Yes
    Forced : Yes

    Audio #1
    ID : 2
    Format : AC-3
    Format/Info : Audio Coding 3
    Format settings, Endianness : Big
    Codec ID : A_AC3
    Duration : 1 h 42 min
    Bit rate mode : Constant
    Bit rate : 448 kb/s
    Channel(s) : 6 channels
    Channel positions : Front: L C R, Side: L R, LFE
    Sampling rate : 48.0 kHz
    Frame rate : 31.250 FPS (1536 spf)
    Bit depth : 16 bits
    Compression mode : Lossy
    Delay relative to video : 11 s 0 ms
    Stream size : 315 MiB (4%)
    Language : Thai
    Service kind : Complete Main
    Default : No
    Forced : Yes

    Audio #2
    ID : 3
    Format : DTS
    Format/Info : Digital Theater Systems
    Mode : 16
    Format settings, Endianness : Big
    Codec ID : A_DTS
    Duration : 1 h 42 min
    Bit rate mode : Constant
    Bit rate : 1 509 kb/s
    Channel(s) : 6 channels
    Channel positions : Front: L C R, Side: L R, LFE
    Sampling rate : 48.0 kHz
    Frame rate : 93.750 FPS (512 spf)
    Bit depth : 24 bits
    Compression mode : Lossy
    Stream size : 1.08 GiB (13%)
    Language : English
    Default : Yes
    Forced : No

    Text #1
    ID : 4
    Format : VobSub
    Muxing mode : zlib
    Codec ID : S_VOBSUB
    Codec ID/Info : Picture based subtitle format used on DVDs
    Duration : 1 h 39 min
    Bit rate : 7 202 b/s
    Count of elements : 901
    Stream size : 5.13 MiB (0%)
    Language : Thai
    Default : No
    Forced : No

    Text #2
    ID : 5
    Format : VobSub
    Muxing mode : zlib
    Codec ID : S_VOBSUB
    Codec ID/Info : Picture based subtitle format used on DVDs
    Duration : 1 h 39 min
    Bit rate : 2 245 b/s
    Count of elements : 901
    Stream size : 1.59 MiB (0%)
    Language : Thai
    Default : No
    Forced : No

    Text #3
    ID : 6
    Format : VobSub
    Muxing mode : zlib
    Codec ID : S_VOBSUB
    Codec ID/Info : Picture based subtitle format used on DVDs
    Duration : 1 h 39 min
    Bit rate : 7 188 b/s
    Count of elements : 901
    Stream size : 5.12 MiB (0%)
    Language : Thai
    Default : No
    Forced : No

    Text #4
    ID : 7
    Format : VobSub
    Muxing mode : zlib
    Codec ID : S_VOBSUB
    Codec ID/Info : Picture based subtitle format used on DVDs
    Duration : 1 h 39 min
    Bit rate : 6 231 b/s
    Count of elements : 901
    Stream size : 4.44 MiB (0%)
    Language : Thai
    Default : No
    Forced : No

    Text #5
    ID : 8
    Format : PGS
    Muxing mode : zlib
    Codec ID : S_HDMV/PGS
    Codec ID/Info : Picture based subtitle format used on BDs/HD-DVDs
    Duration : 1 h 39 min
    Bit rate : 28.9 kb/s
    Count of elements : 1802
    Stream size : 20.6 MiB (0%)
    Language : Thai
    Default : No
    Forced : No

    Text #6
    ID : 9
    Format : PGS
    Muxing mode : zlib
    Codec ID : S_HDMV/PGS
    Codec ID/Info : Picture based subtitle format used on BDs/HD-DVDs
    Duration : 1 h 39 min
    Bit rate : 31.2 kb/s
    Count of elements : 1802
    Stream size : 22.2 MiB (0%)
    Language : Thai
    Default : Yes
    Forced : Yes

    Text #7
    ID : 10
    Format : PGS
    Muxing mode : zlib
    Codec ID : S_HDMV/PGS
    Codec ID/Info : Picture based subtitle format used on BDs/HD-DVDs
    Duration : 1 h 39 min
    Bit rate : 28.9 kb/s
    Count of elements : 1804
    Stream size : 20.6 MiB (0%)
    Language : Thai
    Default : No
    Forced : No

    Text #8
    ID : 11
    Format : UTF-8
    Codec ID : S_TEXT/UTF8
    Codec ID/Info : UTF-8 Plain Text
    Duration : 1 h 38 min
    Bit rate : 56 b/s
    Count of elements : 998
    Stream size : 41.0 KiB (0%)
    Language : English
    Default : No
    Forced : No





    Download: cornfile
    http://cornfile.com/pbhmzdeyxoau
    Download: mekafile
    http://www.mekafile.com/dl.php?f=8l6473bw3zWS

  2. The Following 2 Users Say Thank You to Duckload.us For This Useful Post:

    bigbang06 (10-08-2017), Tatum03 (09-10-2018)

  3. #2
    Senior Member
    สมัครเมื่อ
    Jul 2012
    โพสต์
    6,241
    Thanks
    0
    Thanked 0 Times in 0 Posts
    ขอบคุณมากจ้า

  4. #3
    Senior Member
    สมัครเมื่อ
    Oct 2012
    โพสต์
    512
    Thanks
    12
    Thanked 0 Times in 0 Posts
    ขอบคุณมากมายครับ.

  5. #4
    Senior Member
    สมัครเมื่อ
    Oct 2013
    ที่อยู่
    Thailand
    โพสต์
    1,175
    Thanks
    1,050
    Thanked 0 Times in 0 Posts
    ขอบคุณมาก

  6. #5
    Senior Member
    สมัครเมื่อ
    Jun 2012
    โพสต์
    1,227
    Thanks
    0
    Thanked 1 Time in 1 Post
    ขอบคุณครับ

+ ตอบกลับกระทู้

ข้อมูลกระทู้

Users Browsing this Thread

ในขณะนี้มี 1 ท่านดูกระทู้อยู่. (0 สมาชิกและ 1 ผู้เยี่ยมชม)

     

กฎการโพสต์ข้อความ

  • ท่าน ไม่สามารถ ตั้งกระทู้ใหม่ได้
  • ท่าน ไม่สามารถ ตอบกระทู้ได้
  • ท่าน ไม่สามารถ แนบไฟล์ได้
  • ท่าน ไม่สามารถ แก้ไขข้อความโพสต์ได้
  • BB code สถานะ เปิด
  • Smilies สถานะ เปิด
  • [IMG] สถานะ เปิด
  • HTML สถานะ ปิด