+ ตอบกลับกระทู้
สรุปผลการค้นหา 1 ถึง 2 จากทั้งหมด 2
  1. #1
    Administrators รูปส่วนตัว Duckload.us
    สมัครเมื่อ
    Dec 2010
    โพสต์
    138,365
    Thanks
    7
    Thanked 144,608 Times in 62,843 Posts

    Question [ฝรั่ง]-[BOXSET] [Mini-HD 1080p] Indiana.Jones Quadrilogy [1981-2008 ] ขุมทรัพย์สุดขอบฟ้า 1-4 [เสียงไทย 5.1-อังกฤษ DTS ]+[บรรยายไทย-อังกฤษ] [ เสียงไทย+ซับไทยFromMaster+ซับPGS ] -Blu-ray.DTS.1080p. [Modified]-[พากย์ไทย บรรยายไทย]




    Indiana.Jones 1981

    เรื่องย่อ
    หนังก็ว่าด้วยเรื่องของ ดร.อินเดียน่า โจนส์ (Harrison Ford)อาจารย์ผู้เชี่ยวชาญด้านโบราณคดีที่ชอบตามล่าหา ขุมทรัพย์ล้ำค่าต่างๆ จากทั่วโลกและครั้งนี้เขาต้องตามหาหีบแห่งบัญญัติศัก ดิ์สิทธิ์ที่ว่ากันว่า ผู้ใดได้ครอบครองผู้นั้นจะสามารถเอาชนะได้ในทุกสงครา ม และขณะนี้ ฮิตเลอร์ได้ส่งคนมาตามหามันดร.โจนส์ต้องรีบค้นมันให้ พบก่อนที่พวกนาซีจะเอามันไปได้

    Format : Matroska
    Format version : Version 4 / Version 2
    File size : 5.00 GiB
    Duration : 1 h 55 min
    Overall bit rate : 6 207 kb/s
    Movie name : Indiana.Jones.Raiders.of.the.Lost.Ark.1981.BDRip.1 080p-LQ.DTS-ENTHD
    Encoded date : UTC 2017-08-14 12:56:20
    Writing application : mkvmerge v9.7.1 ( Pandemonium ) 64bit
    Writing library : libebml v1.3.4 + libmatroska v1.4.5
    Cover : Yes
    Attachments : cover.jpg

    Video
    ID : 1
    Format : AVC
    Format/Info : Advanced Video Codec
    Format profile : [email protected]
    Format settings, CABAC : Yes
    Format settings, ReFrames : 5 frames
    Codec ID : V_MPEG4/ISO/AVC
    Duration : 1 h 55 min
    Bit rate : 4 317 kb/s
    Width : 1 920 pixels
    Height : 816 pixels
    Display aspect ratio : 2.35:1
    Frame rate mode : Constant
    Frame rate : 23.976 (24000/1001) FPS
    Color space : YUV
    Chroma subsampling : 4:2:0
    Bit depth : 8 bits
    Scan type : Progressive
    Bits/(Pixel*Frame) : 0.115
    Stream size : 3.48 GiB (70%)
    Title : ethdmovieclub
    Writing library : x264 core 148 r2694 3b70645
    Encoding settings : cabac=1 / ref=5 / deblock=1:-2:-2 / analyse=0x3:0x133 / me=umh / subme=11 / psy=1 / psy_rd=1.00:0.25 / mixed_ref=1 / me_range=32 / chroma_me=1 / trellis=2 / 8x8dct=1 / cqm=0 / deadzone=21,11 / fast_pskip=0 / chroma_qp_offset=-4 / threads=12 / lookahead_threads=1 / sliced_threads=0 / nr=0 / decimate=1 / interlaced=0 / bluray_compat=0 / constrained_intra=0 / bframes=4 / b_pyramid=2 / b_adapt=2 / b_bias=0 / direct=3 / weightb=1 / open_gop=0 / weightp=2 / keyint=240 / keyint_min=23 / scenecut=40 / intra_refresh=0 / rc_lookahead=60 / rc=2pass / mbtree=1 / bitrate=4317 / ratetol=1.0 / qcomp=0.60 / qpmin=0 / qpmax=69 / qpstep=4 / cplxblur=20.0 / qblur=0.5 / ip_ratio=1.40 / aq=1:1.00
    Language : English
    Default : Yes
    Forced : No

    Audio #1
    ID : 2
    Format : DTS
    Format/Info : Digital Theater Systems
    Mode : 16
    Format settings, Endianness : Big
    Codec ID : A_DTS
    Duration : 1 h 55 min
    Bit rate mode : Constant
    Bit rate : 755 kb/s
    Channel(s) : 6 channels
    Channel positions : Front: L C R, Side: L R, LFE
    Sampling rate : 48.0 kHz
    Frame rate : 93.750 FPS (512 spf)
    Bit depth : 24 bits
    Compression mode : Lossy
    Stream size : 622 MiB (12%)
    Title : Eng DTS 5.1
    Language : English
    Default : No
    Forced : No

    Audio #2
    ID : 3
    Format : AC-3
    Format/Info : Audio Coding 3
    Mode extension : CM (complete main)
    Format settings, Endianness : Big
    Codec ID : A_AC3
    Duration : 1 h 55 min
    Bit rate mode : Constant
    Bit rate : 640 kb/s
    Channel(s) : 6 channels
    Channel positions : Front: L C R, Side: L R, LFE
    Sampling rate : 48.0 kHz
    Frame rate : 31.250 FPS (1536 spf)
    Bit depth : 16 bits
    Compression mode : Lossy
    Stream size : 528 MiB (10%)
    Title : Eng AC3 5.1
    Language : English
    Default : Yes
    Forced : No

    Audio #3
    ID : 4
    Format : AC-3
    Format/Info : Audio Coding 3
    Mode extension : CM (complete main)
    Format settings, Endianness : Big
    Codec ID : A_AC3
    Duration : 1 h 55 min
    Bit rate mode : Constant
    Bit rate : 448 kb/s
    Channel(s) : 6 channels
    Channel positions : Front: L C R, Side: L R, LFE
    Sampling rate : 48.0 kHz
    Frame rate : 31.250 FPS (1536 spf)
    Bit depth : 16 bits
    Compression mode : Lossy
    Delay relative to video : 24 ms
    Stream size : 369 MiB (7%)
    Title : Thai AC3 5.1
    Language : Thai
    Default : No
    Forced : Yes

    Text #1
    ID : 5
    Format : PGS
    Muxing mode : zlib
    Codec ID : S_HDMV/PGS
    Codec ID/Info : Picture based subtitle format used on BDs/HD-DVDs
    Duration : 1 h 49 min
    Bit rate : 8 124 b/s
    Count of elements : 2450
    Stream size : 6.37 MiB (0%)
    Title : Eng
    Language : English
    Default : No
    Forced : No

    Text #2
    ID : 6
    Format : VobSub
    Muxing mode : zlib
    Codec ID : S_VOBSUB
    Codec ID/Info : Picture based subtitle format used on DVDs
    Duration : 1 h 48 min
    Bit rate : 1 082 b/s
    Count of elements : 733
    Stream size : 860 KiB (0%)
    Title : Thai 480p
    Language : Thai
    Default : Yes
    Forced : Yes

    Text #3
    ID : 7
    Format : VobSub
    Muxing mode : zlib
    Codec ID : S_VOBSUB
    Codec ID/Info : Picture based subtitle format used on DVDs
    Duration : 1 h 48 min
    Bit rate : 2 089 b/s
    Count of elements : 733
    Stream size : 1.62 MiB (0%)
    Title : Thai 1080p Tahoma
    Language : Thai
    Default : No
    Forced : Yes

    Text #4
    ID : 8
    Format : VobSub
    Muxing mode : zlib
    Codec ID : S_VOBSUB
    Codec ID/Info : Picture based subtitle format used on DVDs
    Duration : 1 h 48 min
    Bit rate : 2 089 b/s
    Count of elements : 733
    Stream size : 1.62 MiB (0%)
    Title : Thai 1080p Tahoma LOW
    Language : Thai
    Default : No
    Forced : Yes

    Text #5
    ID : 9
    Format : PGS
    Muxing mode : zlib
    Codec ID : S_HDMV/PGS
    Codec ID/Info : Picture based subtitle format used on BDs/HD-DVDs
    Duration : 1 h 48 min
    Bit rate : 6 841 b/s
    Count of elements : 1466
    Stream size : 5.31 MiB (0%)
    Title : Thai PGS Tahoma
    Language : Thai
    Default : No
    Forced : Yes

    Text #6
    ID : 10
    Format : PGS
    Muxing mode : zlib
    Codec ID : S_HDMV/PGS
    Codec ID/Info : Picture based subtitle format used on BDs/HD-DVDs
    Duration : 1 h 48 min
    Bit rate : 6 842 b/s
    Count of elements : 1466
    Stream size : 5.31 MiB (0%)
    Title : Thai PGS Tahoma LOW
    Language : Thai
    Default : No
    Forced : Yes

    Text #7
    ID : 11
    Format : VobSub
    Muxing mode : zlib
    Codec ID : S_VOBSUB
    Codec ID/Info : Picture based subtitle format used on DVDs
    Duration : 1 h 48 min
    Bit rate : 2 475 b/s
    Count of elements : 733
    Stream size : 1.92 MiB (0%)
    Title : Thai 1080p Angsana
    Language : Thai
    Default : No
    Forced : Yes

    Text #8
    ID : 12
    Format : VobSub
    Muxing mode : zlib
    Codec ID : S_VOBSUB
    Codec ID/Info : Picture based subtitle format used on DVDs
    Duration : 1 h 48 min
    Bit rate : 2 475 b/s
    Count of elements : 733
    Stream size : 1.92 MiB (0%)
    Title : Thai 1080p Angsana LOW
    Language : Thai
    Default : No
    Forced : Yes

    Text #9
    ID : 13
    Format : PGS
    Muxing mode : zlib
    Codec ID : S_HDMV/PGS
    Codec ID/Info : Picture based subtitle format used on BDs/HD-DVDs
    Duration : 1 h 48 min
    Bit rate : 8 119 b/s
    Count of elements : 1466
    Stream size : 6.30 MiB (0%)
    Title : Thai PGS Angsana
    Language : Thai
    Default : No
    Forced : Yes

    Text #10
    ID : 14
    Format : PGS
    Muxing mode : zlib
    Codec ID : S_HDMV/PGS
    Codec ID/Info : Picture based subtitle format used on BDs/HD-DVDs
    Duration : 1 h 48 min
    Bit rate : 8 119 b/s
    Count of elements : 1466
    Stream size : 6.30 MiB (0%)
    Title : Thai PGS Angsana LOW
    Language : Thai
    Default : No
    Forced : Yes





    Download: cornfile
    1
    http://cornfile.com/t5rnd9udkub5
    2
    http://cornfile.com/xxk9oo3hw81d
    3
    http://cornfile.com/k6md551uqajm
    4
    http://cornfile.com/vyd4eua0pel8

    Download: mekafile
    1
    http://www.filecondo.com/dl.php?f=i5377eby3pPr
    2
    http://www.filecondo.com/dl.php?f=sy2cc1by3pBT
    3
    http://www.filecondo.com/dl.php?f=3f1d13by3nwX
    4
    http://www.filecondo.com/dl.php?f=Tp15ddby3nqi

  2. #2
    Senior Member
    สมัครเมื่อ
    Mar 2011
    โพสต์
    1,346
    Thanks
    0
    Thanked 0 Times in 0 Posts
    ขอบคุณครับ

+ ตอบกลับกระทู้

ข้อมูลกระทู้

Users Browsing this Thread

ในขณะนี้มี 1 ท่านดูกระทู้อยู่. (0 สมาชิกและ 1 ผู้เยี่ยมชม)

     

กฎการโพสต์ข้อความ

  • ท่าน ไม่สามารถ ตั้งกระทู้ใหม่ได้
  • ท่าน ไม่สามารถ ตอบกระทู้ได้
  • ท่าน ไม่สามารถ แนบไฟล์ได้
  • ท่าน ไม่สามารถ แก้ไขข้อความโพสต์ได้
  • BB code สถานะ เปิด
  • Smilies สถานะ เปิด
  • [IMG] สถานะ เปิด
  • HTML สถานะ ปิด