+ ตอบกลับกระทู้
สรุปผลการค้นหา 1 ถึง 5 จากทั้งหมด 5
  1. #1
    Administrators รูปส่วนตัว Duckload.us
    สมัครเมื่อ
    Dec 2010
    โพสต์
    133,673
    Thanks
    7
    Thanked 137,765 Times in 60,841 Posts

    Question [ฝรั่ง]-[สำหรับนักสะสม]Harry Potter Complete 8-Film Collection (2001 - 2011) แฮร์รี่ พอตเตอร์ ภาค 1 - 7.2 Blu-ray-Blu-ray.AC-3.1080p. [Modified] [พากย์:ไทย+อังกฤษ]-[บรรยาย:ไทย+อังกฤษ]


    Harry Potter and the Sorcerer s Stone (2001) แฮร์รี่ พอตเตอร์ กับศิลาอาถรรพ์
    เรื่องราวของ แฮร์รี่ พอตเตอร์ เด็กชายกำพร้าผู้มีแผลเป็นรูปสายฟ้าอยู่กลางหน้าผาก และพักอาศัยอยู่กับลุงและป้า ซึ่งมักจะหาเรื่องแฮร์รี่อยู่เสมอ และลูกพี่ลูกน้องที่กลั่นแกล้งเขาอยู่เป็นประจำ จนกระทั่งวันหนึ่ง เมื่อแฮร์รี่อายุได้ 11 ปี แฮร์รี่จึงทราบว่าเขาไม่ใช่คนธรรมดาๆ แต่เป็นพ่อมดที่โด่งดังคนหนึ่งของโลก และพ่อแม่ของเขาไม่ได้เสียชีวิตในอุบัติเหตุทางรถยนต ์ ดังที่ป้าเพตทูเนียของเขาว่าไว้ แต่ถูกฆาตกรรมในขณะที่กำลังปกป้องแฮร์รี่ โดยพ่อมดที่ชั่วร้ายที่สุดแห่งยุค ลอร์ดโวลเดอมอร์ แต่พลังอำนาจและร่างกายของลอร์ดโวลเดอมอร์กลับสูญสิ้ น เมื่อเขาพยายามสังหารแฮร์รี่ แฮร์รี่จึงต้องค้นหาอดีตเกี่ยวกับพ่อแม่ของเขา และเข้าเรียนในสถานศึกษาคาถาพ่อมดแม่มดและเวทมนตร์ศา สตร์ ฮอกวอตส์ ที่ซึ่งการผจญภัยของแฮร์รี่ และผองเพื่อนเริ่มต้นขึ้น
    Quote:
    Directors : Chris Columbus
    Writers : J.K. Rowling , Steve Kloves
    Genre : Adventure , Family , Fantasy
    Cast : Daniel Radcliffe , Rupert Grint , Richard Harris
    Country : UK , USA
    Release Date : 4 November 2001 (Thailand)

    IMDb : http://www.imdb.com/title/tt0241527/

    General
    Format : Matroska
    Format version : Version 4 / Version 2
    File size : 4.30 GiB
    Duration : 2h 32mn
    Overall bit rate : 4 040 Kbps
    Encoded date : UTC 2014-12-06 10:53:00
    Writing application : mkvmerge v7.3.0 ( Nouages ) 64bit built on Oct 22 2014 18:53:34
    Writing library : libebml v1.3.0 + libmatroska v1.4.1

    Video
    ID : 1
    Format : AVC
    Format/Info : Advanced Video Codec
    Format profile : [email protected]
    Format settings, CABAC : Yes
    Format settings, ReFrames : 4 frames
    Codec ID : V_MPEG4/ISO/AVC
    Duration : 2h 32mn
    Bit rate mode : Variable
    Bit rate : 2 900 Kbps
    Maximum bit rate : 100.0 Mbps
    Width : 1 920 pixels
    Height : 792 pixels
    Display aspect ratio : 2.40:1
    Frame rate : 23.976 fps
    Color space : YUV
    Chroma subsampling : 4:2:0
    Bit depth : 8 bits
    Scan type : Progressive
    Bits/(Pixel*Frame) : 0.080
    Stream size : 3.06 GiB (71%)
    Title : [1080 HQ] Harry Potter 1 (2001) Blu-ray 1080p AC3 x264 cosmoX
    Writing library : x264 core 130 r2273 b3065e6
    Encoding settings : cabac=1 / ref=4 / deblock=1:0:0 / analyse=0x3:0x133 / me=umh / subme=11 / psy=1 / psy_rd=1.00:0.15 / mixed_ref=1 / me_range=64 / chroma_me=1 / trellis=2 / 8x8dct=1 / cqm=0 / deadzone=21,11 / fast_pskip=0 / chroma_qp_offset=-3 / threads=16 / lookahead_threads=1 / sliced_threads=0 / nr=0 / decimate=1 / interlaced=0 / bluray_compat=0 / constrained_intra=0 / bframes=4 / b_pyramid=2 / b_adapt=2 / b_bias=0 / direct=3 / weightb=1 / open_gop=0 / weightp=2 / keyint=250 / keyint_min=23 / scenecut=40 / intra_refresh=0 / rc_lookahead=120 / rc=2pass / mbtree=1 / bitrate=2900 / ratetol=1.0 / qcomp=0.60 / qpmin=0 / qpmax=69 / qpstep=4 / cplxblur=20.0 / qblur=0.5 / vbv_maxrate=99999 / vbv_bufsize=99999 / nal_hrd=vbr / ip_ratio=1.40 / aq=1:1.00

    Audio #1
    ID : 2
    Format : AC-3
    Format/Info : Audio Coding 3
    Mode extension : CM (complete main)
    Codec ID : A_AC3
    Duration : 2h 32mn
    Bit rate mode : Constant
    Bit rate : 640 Kbps
    Channel(s) : 6 channels
    Channel positions : Front: L C R, Side: L R, LFE
    Sampling rate : 48.0 KHz
    Bit depth : 16 bits
    Compression mode : Lossy
    Stream size : 697 MiB (16%)
    Title : Thai AC3

    Audio #2
    ID : 3
    Format : AC-3
    Format/Info : Audio Coding 3
    Mode extension : CM (complete main)
    Codec ID : A_AC3
    Duration : 2h 32mn
    Bit rate mode : Constant
    Bit rate : 448 Kbps
    Channel(s) : 6 channels
    Channel positions : Front: L C R, Side: L R, LFE
    Sampling rate : 48.0 KHz
    Bit depth : 16 bits
    Compression mode : Lossy
    Stream size : 488 MiB (11%)
    Title : Eng AC3

    Text #1
    ID : 4
    Format : VobSub
    Codec ID : S_VOBSUB
    Codec ID/Info : The same subtitle format used on DVDs
    Title : Thai 480p

    Text #2
    ID : 5
    Format : PGS
    Codec ID : S_HDMV/PGS
    Codec ID/Info : The same subtitle format used on BDs/HD-DVDs
    Title : Thai PGS

    Text #3
    ID : 6
    Format : PGS
    Codec ID : S_HDMV/PGS
    Codec ID/Info : The same subtitle format used on BDs/HD-DVDs
    Title : Eng PGS

    Text #4
    ID : 7
    Format : VobSub
    Codec ID : S_VOBSUB
    Codec ID/Info : The same subtitle format used on DVDs
    Title : Eng 480p




    ================================================== ====================================

    Harry Potter and the Chamber of Secrets (2002) แฮร์รี่ พอตเตอร์ กับห้องแห่งความลับ
    เรื่องราวของเสียงประหลาดในผนังกำแพงของโรงเรียน ที่มีแฮร์รี่ พอตเตอร์ได้ยินเพียงผู้เดียว จนทำให้เป็นที่ทราบกันว่าพ่อมดแฮร์รี่ แท้จริงเป็นทายาทของงูที่สามารถเข้าใจคำพูดงูได้ เขาและเพื่อนรักจึงต้องค้นหาห้องแห่งความลับในโรงเรี ยน เพื่อนำตัวน้องสาวรอนที่ถูกงูจับไป กลับคืนมาจากห้องแห่งความลับ
    Quote:
    Directors : Chris Columbus
    Writers : J.K. Rowling , Steve Kloves
    Genre : Adventure , Family , Fantasy
    Cast : Daniel Radcliffe , Rupert Grint , Emma Watson
    Country : USA , UK , Germany
    Release Date : 22 November 2002 (Thailand)

    IMDb : http://www.imdb.com/title/tt0295297/

    General
    Format : Matroska
    Format version : Version 4 / Version 2
    File size : 4.29 GiB
    Duration : 2h 40mn
    Overall bit rate : 3 819 Kbps
    Encoded date : UTC 2014-12-05 15:52:50
    Writing application : mkvmerge v7.3.0 ( Nouages ) 64bit built on Oct 22 2014 18:53:34
    Writing library : libebml v1.3.0 + libmatroska v1.4.1

    Video
    ID : 1
    Format : AVC
    Format/Info : Advanced Video Codec
    Format profile : [email protected]
    Format settings, CABAC : Yes
    Format settings, ReFrames : 4 frames
    Codec ID : V_MPEG4/ISO/AVC
    Duration : 2h 40mn
    Bit rate mode : Variable
    Bit rate : 2 480 Kbps
    Maximum bit rate : 100.0 Mbps
    Width : 1 920 pixels
    Height : 800 pixels
    Display aspect ratio : 2.40:1
    Frame rate : 23.976 fps
    Color space : YUV
    Chroma subsampling : 4:2:0
    Bit depth : 8 bits
    Scan type : Progressive
    Bits/(Pixel*Frame) : 0.067
    Stream size : 2.77 GiB (64%)
    Title : [1080 HQ] Harry Potter 2 (2002) Blu-ray 1080p AC3 x264 cosmoX
    Writing library : x264 core 130 r2273 b3065e6
    Encoding settings : cabac=1 / ref=4 / deblock=1:0:0 / analyse=0x3:0x133 / me=umh / subme=11 / psy=1 / psy_rd=1.00:0.15 / mixed_ref=1 / me_range=64 / chroma_me=1 / trellis=2 / 8x8dct=1 / cqm=0 / deadzone=21,11 / fast_pskip=0 / chroma_qp_offset=-3 / threads=16 / lookahead_threads=1 / sliced_threads=0 / nr=0 / decimate=1 / interlaced=0 / bluray_compat=0 / constrained_intra=0 / bframes=4 / b_pyramid=2 / b_adapt=2 / b_bias=0 / direct=3 / weightb=1 / open_gop=0 / weightp=2 / keyint=250 / keyint_min=23 / scenecut=40 / intra_refresh=0 / rc_lookahead=120 / rc=2pass / mbtree=1 / bitrate=2480 / ratetol=1.0 / qcomp=0.60 / qpmin=0 / qpmax=69 / qpstep=4 / cplxblur=20.0 / qblur=0.5 / vbv_maxrate=99999 / vbv_bufsize=99999 / nal_hrd=vbr / ip_ratio=1.40 / aq=1:1.00

    Audio #1
    ID : 2
    Format : AC-3
    Format/Info : Audio Coding 3
    Mode extension : CM (complete main)
    Codec ID : A_AC3
    Duration : 2h 40mn
    Bit rate mode : Constant
    Bit rate : 640 Kbps
    Channel(s) : 6 channels
    Channel positions : Front: L C R, Side: L R, LFE
    Sampling rate : 48.0 KHz
    Bit depth : 16 bits
    Compression mode : Lossy
    Stream size : 737 MiB (17%)
    Title : Thai AC3

    Audio #2
    ID : 3
    Format : AC-3
    Format/Info : Audio Coding 3
    Mode extension : CM (complete main)
    Codec ID : A_AC3
    Duration : 2h 40mn
    Bit rate mode : Constant
    Bit rate : 640 Kbps
    Channel(s) : 6 channels
    Channel positions : Front: L C R, Side: L R, LFE
    Sampling rate : 48.0 KHz
    Bit depth : 16 bits
    Compression mode : Lossy
    Stream size : 737 MiB (17%)
    Title : Eng AC3

    Text #1
    ID : 4
    Format : VobSub
    Codec ID : S_VOBSUB
    Codec ID/Info : The same subtitle format used on DVDs
    Title : Thai 480p

    Text #2
    ID : 5
    Format : PGS
    Codec ID : S_HDMV/PGS
    Codec ID/Info : The same subtitle format used on BDs/HD-DVDs
    Title : Thai PGS

    Text #3
    ID : 6
    Format : PGS
    Codec ID : S_HDMV/PGS
    Codec ID/Info : The same subtitle format used on BDs/HD-DVDs
    Title : Eng PGS

    Text #4
    ID : 7
    Format : VobSub
    Codec ID : S_VOBSUB
    Codec ID/Info : The same subtitle format used on DVDs
    Title : Eng 480p



    ================================================== ====================================

    Harry Potter and the Prisoner of Azkaban (2004) แฮร์รี่ พอตเตอร์ กับนักโทษแห่งอัซคาบัน
    เรื่องราวของนักโทษจากคุกอัซคาบัน ซีเรียส แบล็ค ที่หลบหนีจากที่คุมขังสุดแน่นหนา เล่าลือกันว่า เขาคือสมุนคนเก่งของคนที่คุณไม่ควรเอ่ยนาม เขาว่าซีเรียสออกจากคุกครั้งนี้มีจุดประสงค์เพื่อมาส ังหารพ่อมดน้อย แฮรี่ พอตเตอร์ ทำเอาพวกผู้คุมวิญญานออกตามหาตัวกันจ้าละหวั่น โดยเฉพาะพากันมาสิงอยู่ในโรงเรียนฮอว์ตวอต ให้เป็นที่หวาดหวั่นกันไปทั่ว เพราะกิตติศัพท์การดูดเอาความสุขทั้งปวงออกจากร่างขอ งเหยื่ออย่างไร้ความ ปราณี
    Quote:
    Directors : Alfonso Cuaron
    Writers : J.K. Rowling , Steve Kloves
    Genre : Adventure , Family , Fantasy
    Cast : Daniel Radcliffe , Rupert Grint , Emma Watson
    Country : UK , USA
    Release Date : 2 June 2004 (Thailand)

    IMDb : http://www.imdb.com/title/tt0304141/

    General
    Format : Matroska
    Format version : Version 4 / Version 2
    File size : 4.30 GiB
    Duration : 2h 21mn
    Overall bit rate : 4 349 Kbps
    Encoded date : UTC 2014-12-08 02:02:58
    Writing application : mkvmerge v7.3.0 ( Nouages ) 64bit built on Oct 22 2014 18:53:34
    Writing library : libebml v1.3.0 + libmatroska v1.4.1

    Video
    ID : 1
    Format : AVC
    Format/Info : Advanced Video Codec
    Format profile : [email protected]
    Format settings, CABAC : Yes
    Format settings, ReFrames : 4 frames
    Codec ID : V_MPEG4/ISO/AVC
    Duration : 2h 21mn
    Bit rate mode : Variable
    Bit rate : 3 000 Kbps
    Maximum bit rate : 100.0 Mbps
    Width : 1 920 pixels
    Height : 792 pixels
    Display aspect ratio : 2.40:1
    Frame rate : 23.976 fps
    Color space : YUV
    Chroma subsampling : 4:2:0
    Bit depth : 8 bits
    Scan type : Progressive
    Bits/(Pixel*Frame) : 0.082
    Stream size : 2.95 GiB (69%)
    Title : [1080 HQ] Harry Potter 3 (2004) Blu-ray 1080p AC3 x264 cosmoX
    Writing library : x264 core 130 r2273 b3065e6
    Encoding settings : cabac=1 / ref=4 / deblock=1:0:0 / analyse=0x3:0x133 / me=umh / subme=11 / psy=1 / psy_rd=1.00:0.15 / mixed_ref=1 / me_range=64 / chroma_me=1 / trellis=2 / 8x8dct=1 / cqm=0 / deadzone=21,11 / fast_pskip=0 / chroma_qp_offset=-3 / threads=16 / lookahead_threads=1 / sliced_threads=0 / nr=0 / decimate=1 / interlaced=0 / bluray_compat=0 / constrained_intra=0 / bframes=4 / b_pyramid=2 / b_adapt=2 / b_bias=0 / direct=3 / weightb=1 / open_gop=0 / weightp=2 / keyint=250 / keyint_min=23 / scenecut=40 / intra_refresh=0 / rc_lookahead=120 / rc=2pass / mbtree=1 / bitrate=3000 / ratetol=1.0 / qcomp=0.60 / qpmin=0 / qpmax=69 / qpstep=4 / cplxblur=20.0 / qblur=0.5 / vbv_maxrate=99999 / vbv_bufsize=99999 / nal_hrd=vbr / ip_ratio=1.40 / aq=1:1.00

    Audio #1
    ID : 2
    Format : AC-3
    Format/Info : Audio Coding 3
    Mode extension : CM (complete main)
    Codec ID : A_AC3
    Duration : 2h 21mn
    Bit rate mode : Constant
    Bit rate : 640 Kbps
    Channel(s) : 6 channels
    Channel positions : Front: L C R, Side: L R, LFE
    Sampling rate : 48.0 KHz
    Bit depth : 16 bits
    Compression mode : Lossy
    Stream size : 649 MiB (15%)
    Title : Thai AC3

    Audio #2
    ID : 3
    Format : AC-3
    Format/Info : Audio Coding 3
    Mode extension : CM (complete main)
    Codec ID : A_AC3
    Duration : 2h 21mn
    Bit rate mode : Constant
    Bit rate : 640 Kbps
    Channel(s) : 6 channels
    Channel positions : Front: L C R, Side: L R, LFE
    Sampling rate : 48.0 KHz
    Bit depth : 16 bits
    Compression mode : Lossy
    Stream size : 649 MiB (15%)
    Title : Eng AC3

    Text #1
    ID : 4
    Format : VobSub
    Codec ID : S_VOBSUB
    Codec ID/Info : The same subtitle format used on DVDs
    Title : Thai 480p

    Text #2
    ID : 5
    Format : PGS
    Codec ID : S_HDMV/PGS
    Codec ID/Info : The same subtitle format used on BDs/HD-DVDs
    Title : Thai PGS

    Text #3
    ID : 6
    Format : PGS
    Codec ID : S_HDMV/PGS
    Codec ID/Info : The same subtitle format used on BDs/HD-DVDs
    Title : Eng PGS

    Text #4
    ID : 7
    Format : VobSub
    Codec ID : S_VOBSUB
    Codec ID/Info : The same subtitle format used on DVDs
    Title : Eng 480p




    ================================================== ====================================

    Harry Potter and the Goblet of Fire (2005) แฮร์รี่ พอตเตอร์ กับถ้วยอัคนี
    เรื่องราวเกิดความสับสนยุ่งยาก เมื่อชื่อของ แฮรี่ พอตเตอร์ ไปอยู่ในถ้วยอัคนีที่คัดเลือกผู้เข้าแข่งขันประลองคว ามสามารถ ของโรงเรียนเวทมนตร์ของพ่อมดแม่มด 3 แห่ง การประลองที่ท้าทายและอันตรายยิ่ง กับมังกรบิน ปีศาจใต้น้ำที่ดุร้าย และสุดท้ายที่เขาวงกต ที่ซึ่งแฮรี่จะได้พบกับผู้ที่ไม่ควรเอ่ยนาม
    Quote:
    Directors : Mike Newell
    Writers : J.K. Rowling , Steve Kloves
    Genre : Adventure , Family , Fantasy
    Cast : Daniel Radcliffe , Emma Watson , Rupert Grint
    Country : UK , USA
    Release Date : 17 November 2005 (Thailand)

    IMDb : http://www.imdb.com/title/tt0330373/

    General
    Format : Matroska
    Format version : Version 4 / Version 2
    File size : 4.30 GiB
    Duration : 2h 37mn
    Overall bit rate : 3 916 Kbps
    Encoded date : UTC 2014-12-09 03:31:00
    Writing application : mkvmerge v7.3.0 ( Nouages ) 64bit built on Oct 22 2014 18:53:34
    Writing library : libebml v1.3.0 + libmatroska v1.4.1

    Video
    ID : 1
    Format : AVC
    Format/Info : Advanced Video Codec
    Format profile : [email protected]
    Format settings, CABAC : Yes
    Format settings, ReFrames : 4 frames
    Codec ID : V_MPEG4/ISO/AVC
    Duration : 2h 37mn
    Bit rate mode : Variable
    Bit rate : 2 960 Kbps
    Maximum bit rate : 100.0 Mbps
    Width : 1 920 pixels
    Height : 800 pixels
    Display aspect ratio : 2.40:1
    Frame rate : 23.976 fps
    Color space : YUV
    Chroma subsampling : 4:2:0
    Bit depth : 8 bits
    Scan type : Progressive
    Bits/(Pixel*Frame) : 0.080
    Stream size : 3.23 GiB (75%)
    Title : [1080 HQ] Harry Potter 4 (2005) Blu-ray 1080p AC3 x264 cosmoX
    Writing library : x264 core 130 r2273 b3065e6
    Encoding settings : cabac=1 / ref=4 / deblock=1:0:0 / analyse=0x3:0x133 / me=umh / subme=11 / psy=1 / psy_rd=1.00:0.15 / mixed_ref=1 / me_range=64 / chroma_me=1 / trellis=2 / 8x8dct=1 / cqm=0 / deadzone=21,11 / fast_pskip=0 / chroma_qp_offset=-3 / threads=16 / lookahead_threads=1 / sliced_threads=0 / nr=0 / decimate=1 / interlaced=0 / bluray_compat=0 / constrained_intra=0 / bframes=4 / b_pyramid=2 / b_adapt=2 / b_bias=0 / direct=3 / weightb=1 / open_gop=0 / weightp=2 / keyint=250 / keyint_min=23 / scenecut=40 / intra_refresh=0 / rc_lookahead=120 / rc=2pass / mbtree=1 / bitrate=2960 / ratetol=1.0 / qcomp=0.60 / qpmin=0 / qpmax=69 / qpstep=4 / cplxblur=20.0 / qblur=0.5 / vbv_maxrate=99999 / vbv_bufsize=99999 / nal_hrd=vbr / ip_ratio=1.40 / aq=1:1.00

    Audio #1
    ID : 2
    Format : AC-3
    Format/Info : Audio Coding 3
    Mode extension : CM (complete main)
    Codec ID : A_AC3
    Duration : 2h 37mn
    Bit rate mode : Constant
    Bit rate : 448 Kbps
    Channel(s) : 6 channels
    Channel positions : Front: L C R, Side: L R, LFE
    Sampling rate : 48.0 KHz
    Bit depth : 16 bits
    Compression mode : Lossy
    Stream size : 503 MiB (11%)
    Title : Thai AC3

    Audio #2
    ID : 3
    Format : AC-3
    Format/Info : Audio Coding 3
    Mode extension : CM (complete main)
    Codec ID : A_AC3
    Duration : 2h 37mn
    Bit rate mode : Constant
    Bit rate : 448 Kbps
    Channel(s) : 6 channels
    Channel positions : Front: L C R, Side: L R, LFE
    Sampling rate : 48.0 KHz
    Bit depth : 16 bits
    Compression mode : Lossy
    Stream size : 503 MiB (11%)
    Title : Eng AC3

    Text #1
    ID : 4
    Format : VobSub
    Codec ID : S_VOBSUB
    Codec ID/Info : The same subtitle format used on DVDs
    Title : Thai 480p

    Text #2
    ID : 5
    Format : PGS
    Codec ID : S_HDMV/PGS
    Codec ID/Info : The same subtitle format used on BDs/HD-DVDs
    Title : Thai PGS

    Text #3
    ID : 6
    Format : PGS
    Codec ID : S_HDMV/PGS
    Codec ID/Info : The same subtitle format used on BDs/HD-DVDs
    Title : Eng PGS

    Text #4
    ID : 7
    Format : VobSub
    Codec ID : S_VOBSUB
    Codec ID/Info : The same subtitle format used on DVDs
    Title : Eng 480p




    ================================================== ====================================

    Harry Potter and the Order of the Phoenix (2007) แฮร์รี่ พอตเตอร์ กับภาคีนกฟีนิกซ์
    ในช่วงปิดเทอมหน้าร้อน การจู่โจมของเหล่าผู้คุมวิญญาณ ทำให้ แฮร์รี่ พอตเตอร์ ต้องฝ่าฝืนกฎเกณฑ์พ่อมดที่ยังไม่ถึงวัยวุฒิ ด้วยการใช้เวทมนตร์ในโลกของมักเกิ้ล เพื่อช่วยเหลือดั๊ดลี่ย์และตัวเขาเอง ผลคือกระทรวงเวทมนตร์มีคำสั่งไล่แฮร์รี่ออกจากการเป็ นนักศึกษาของฮอกวอตส์ แม้แฮร์รี่จะยังคงสถานภาพการเป็นนักศึกษาอยู่ได้ เพราะดัมเบิลดอร์ยื่นมือเข้ามาช่วยเหลือ แต่กระทรวงได้ส่ง ศ.จ.อัมบริดจ์ เข้ามาเพื่อค่อยๆ ยึดกุมอำนาจในฮอกวอร์ต และกลบเกลื่อนข่าวการกลับมาของลอร์ดโวลเดอร์มอร์ เมื่อถูกปิดกั้นในทุกหนทาง แฮร์รี่จึงรวบรวมเหล่านักเรียนที่สมัครใจก่อตั้งทัพด ัมเบิลดอร์ขึ้นมา เพื่อเตรียมรับมือกับฝ่ายจอมมาร และร่วมมือกับภาคีนกฟินิกซ์รักษาสิ่งล้ำค่าที่ซ่อนอย ู่ในกระทรวง ซึ่งโวลเดอมอร์ต้องการแย่งชิงมาเป็นของตนเองQuote:

    Directors : David Yates
    Writers : J.K. Rowling , Michael Goldenberg
    Genre : Adventure , Family , Fantasy
    Cast : Daniel Radcliffe , Emma Watson , Rupert Grint
    Country : UK , USA
    Release Date : 12 July 2007 (Thailand)

    IMDb : http://www.imdb.com/title/tt0373889/

    General
    Format : Matroska
    Format version : Version 4 / Version 2
    File size : 4.29 GiB
    Duration : 2h 18mn
    Overall bit rate : 4 445 Kbps
    Encoded date : UTC 2014-12-10 00:29:19
    Writing application : mkvmerge v7.3.0 ( Nouages ) 64bit built on Oct 22 2014 18:53:34
    Writing library : libebml v1.3.0 + libmatroska v1.4.1

    Video
    ID : 1
    Format : AVC
    Format/Info : Advanced Video Codec
    Format profile : [email protected]
    Format settings, CABAC : Yes
    Format settings, ReFrames : 4 frames
    Codec ID : V_MPEG4/ISO/AVC
    Duration : 2h 18mn
    Bit rate mode : Variable
    Bit rate : 3 100 Kbps
    Maximum bit rate : 100.0 Mbps
    Width : 1 920 pixels
    Height : 792 pixels
    Display aspect ratio : 2.40:1
    Frame rate : 23.976 fps
    Color space : YUV
    Chroma subsampling : 4:2:0
    Bit depth : 8 bits
    Scan type : Progressive
    Bits/(Pixel*Frame) : 0.085
    Stream size : 2.97 GiB (69%)
    Title : [1080 HQ] Harry Potter 5 (2007) Blu-ray 1080p AC3 x264 cosmoX
    Writing library : x264 core 130 r2273 b3065e6
    Encoding settings : cabac=1 / ref=4 / deblock=1:0:0 / analyse=0x3:0x133 / me=umh / subme=11 / psy=1 / psy_rd=1.00:0.15 / mixed_ref=1 / me_range=64 / chroma_me=1 / trellis=2 / 8x8dct=1 / cqm=0 / deadzone=21,11 / fast_pskip=0 / chroma_qp_offset=-3 / threads=16 / lookahead_threads=1 / sliced_threads=0 / nr=0 / decimate=1 / interlaced=0 / bluray_compat=0 / constrained_intra=0 / bframes=4 / b_pyramid=2 / b_adapt=2 / b_bias=0 / direct=3 / weightb=1 / open_gop=0 / weightp=2 / keyint=250 / keyint_min=23 / scenecut=40 / intra_refresh=0 / rc_lookahead=120 / rc=2pass / mbtree=1 / bitrate=3100 / ratetol=1.0 / qcomp=0.60 / qpmin=0 / qpmax=69 / qpstep=4 / cplxblur=20.0 / qblur=0.5 / vbv_maxrate=99999 / vbv_bufsize=99999 / nal_hrd=vbr / ip_ratio=1.40 / aq=1:1.00

    Audio #1
    ID : 2
    Format : AC-3
    Format/Info : Audio Coding 3
    Mode extension : CM (complete main)
    Codec ID : A_AC3
    Duration : 2h 18mn
    Bit rate mode : Constant
    Bit rate : 640 Kbps
    Channel(s) : 6 channels
    Channel positions : Front: L C R, Side: L R, LFE
    Sampling rate : 48.0 KHz
    Bit depth : 16 bits
    Compression mode : Lossy
    Stream size : 633 MiB (14%)
    Title : Thai AC3

    Audio #2
    ID : 3
    Format : AC-3
    Format/Info : Audio Coding 3
    Mode extension : CM (complete main)
    Codec ID : A_AC3
    Duration : 2h 18mn
    Bit rate mode : Constant
    Bit rate : 640 Kbps
    Channel(s) : 6 channels
    Channel positions : Front: L C R, Side: L R, LFE
    Sampling rate : 48.0 KHz
    Bit depth : 16 bits
    Compression mode : Lossy
    Stream size : 633 MiB (14%)
    Title : Eng AC3

    Text #1
    ID : 4
    Format : VobSub
    Codec ID : S_VOBSUB
    Codec ID/Info : The same subtitle format used on DVDs
    Title : Thai 480p

    Text #2
    ID : 5
    Format : PGS
    Codec ID : S_HDMV/PGS
    Codec ID/Info : The same subtitle format used on BDs/HD-DVDs
    Title : Thai PGS

    Text #3
    ID : 6
    Format : PGS
    Codec ID : S_HDMV/PGS
    Codec ID/Info : The same subtitle format used on BDs/HD-DVDs
    Title : Eng PGS

    Text #4
    ID : 7
    Format : VobSub
    Codec ID : S_VOBSUB
    Codec ID/Info : The same subtitle format used on DVDs
    Title : Eng 480p



    ================================================== ====================================


    Harry Potter and the Half-Blood Prince (2009) แฮร์รี่พอตเตอร์ กับเจ้าชายเลือดผสม
    โวลเดอมอร์ยิ่งบีบคั้นทั้งโลกของพวกมักเกิ้ลและพ่อมด แม่มด และฮอกวอตส์ก็ไม่ได้เป็นที่ปลอดภัยอย่างที่เคยเป็นมา แฮร์รี่สงสัยว่าอาจมีอันตรายซุกซ่อนอยู่แม้แต่ภายในป ราสาท แต่ดัมเบิลดอร์กลับยิ่งตั้งใจที่จะเตรียมให้เขาสู้ใน สงครามครั้งสุดท้าย ซึ่งเขารู้ว่ากำลังใกล้เข้ามาอย่างรวดเร็ว พวกเขาร่วมกันหากุญแจเพื่อปลดล็อคการปกป้องของโวลเดอ มอร์ และท้ายสุดดัมเบิลดอร์ขอความช่วยเหลือจากเพื่อนเก่าท ี่เคยร่วมงานกัน ศาสตราจารย์ฮอเรซ ซลักฮอร์น ผู้มีชีวิตชีวา น่าไว้ใจ และมีความสัมพันธ์อันดี ซึ่งเขาเชื่อว่าเป็นผู้กำข้อมูลสำคัญยิ่งไว้
    ในขณะเดียวกัน พวกนักเรียนก็ถูกโจมตีจากคู่ต่อสู้ที่แตกต่างกันไป ในขณะที่ฮอร์โมนวัยรุ่นวิ่งพล่านอยู่ในตัว แฮร์รี่พบว่าตนเองถูกดึงดูดเข้าไปหาจินนี่มากขึ้นทุก ที แต่ก็เช่นเดียวกับดีน โทมัส และลาเวนเดอร์ บราวน์ ได้ตกลงใจว่ารอนเป็นหนุ่มของเธอ ถ้าไม่นับช็อคโกแล็ตชอง โรมิลด้า เวน และยังเฮอร์ไมโอนี่ ซึ่งพลุ่งพล่านด้วยความหึงหวง แต่ยังมุ่งมั่นที่จะเก็บงำความรู้สึกเอาไว้ ท่ามกลางความรักบานสะพรั่ง นักเรียนคนหนึ่งกลับคงไว้ซึ่งความเย็นชา เขาตั้งใจจะสร้างชื่อให้กับตัวเอง ถึงแม้จะเป็นในด้านมืดก็ตาม ความรักลอยอยู่ในอากาศ แต่เหตุการณ์ร้ายรออยู่ข้างหน้า และฮอกวอตส์อาจไม่มีวันเหมือนเดิมได้อีก
    Quote:
    Directors : David Yates
    Writers : J.K. Rowling , Steve Kloves
    Genre : Adventure , Family , Fantasy
    Cast : Daniel Radcliffe , Emma Watson , Rupert Grint
    Country : UK , USA
    Release Date : 16 July 2009 (Thailand)

    IMDb : http://www.imdb.com/title/tt0417741/

    General
    Format : Matroska
    Format version : Version 4 / Version 2
    File size : 4.30 GiB
    Duration : 2h 33mn
    Overall bit rate : 4 013 Kbps
    Encoded date : UTC 2014-12-10 22:35:11
    Writing application : mkvmerge v7.3.0 ( Nouages ) 64bit built on Oct 22 2014 18:53:34
    Writing library : libebml v1.3.0 + libmatroska v1.4.1

    Video
    ID : 1
    Format : AVC
    Format/Info : Advanced Video Codec
    Format profile : [email protected]
    Format settings, CABAC : Yes
    Format settings, ReFrames : 4 frames
    Codec ID : V_MPEG4/ISO/AVC
    Duration : 2h 33mn
    Bit rate mode : Variable
    Bit rate : 2 870 Kbps
    Maximum bit rate : 100.0 Mbps
    Width : 1 920 pixels
    Height : 800 pixels
    Display aspect ratio : 2.40:1
    Frame rate : 23.976 fps
    Color space : YUV
    Chroma subsampling : 4:2:0
    Bit depth : 8 bits
    Scan type : Progressive
    Bits/(Pixel*Frame) : 0.078
    Stream size : 3.05 GiB (71%)
    Title : [1080 HQ] Harry Potter 6 (2009) Blu-ray 1080p AC3 x264 cosmoX
    Writing library : x264 core 130 r2273 b3065e6
    Encoding settings : cabac=1 / ref=4 / deblock=1:0:0 / analyse=0x3:0x133 / me=umh / subme=11 / psy=1 / psy_rd=1.00:0.15 / mixed_ref=1 / me_range=64 / chroma_me=1 / trellis=2 / 8x8dct=1 / cqm=0 / deadzone=21,11 / fast_pskip=0 / chroma_qp_offset=-3 / threads=16 / lookahead_threads=1 / sliced_threads=0 / nr=0 / decimate=1 / interlaced=0 / bluray_compat=0 / constrained_intra=0 / bframes=4 / b_pyramid=2 / b_adapt=2 / b_bias=0 / direct=3 / weightb=1 / open_gop=0 / weightp=2 / keyint=250 / keyint_min=23 / scenecut=40 / intra_refresh=0 / rc_lookahead=120 / rc=2pass / mbtree=1 / bitrate=2870 / ratetol=1.0 / qcomp=0.60 / qpmin=0 / qpmax=69 / qpstep=4 / cplxblur=20.0 / qblur=0.5 / vbv_maxrate=99999 / vbv_bufsize=99999 / nal_hrd=vbr / ip_ratio=1.40 / aq=1:1.00

    Audio #1
    ID : 2
    Format : AC-3
    Format/Info : Audio Coding 3
    Mode extension : CM (complete main)
    Codec ID : A_AC3
    Duration : 2h 33mn
    Bit rate mode : Constant
    Bit rate : 448 Kbps
    Channel(s) : 6 channels
    Channel positions : Front: L C R, Side: L R, LFE
    Sampling rate : 48.0 KHz
    Bit depth : 16 bits
    Compression mode : Lossy
    Stream size : 492 MiB (11%)
    Title : Thai AC3

    Audio #2
    ID : 3
    Format : AC-3
    Format/Info : Audio Coding 3
    Mode extension : CM (complete main)
    Codec ID : A_AC3
    Duration : 2h 33mn
    Bit rate mode : Constant
    Bit rate : 640 Kbps
    Channel(s) : 6 channels
    Channel positions : Front: L C R, Side: L R, LFE
    Sampling rate : 48.0 KHz
    Bit depth : 16 bits
    Compression mode : Lossy
    Stream size : 703 MiB (16%)
    Title : Eng AC3

    Text #1
    ID : 4
    Format : VobSub
    Codec ID : S_VOBSUB
    Codec ID/Info : The same subtitle format used on DVDs
    Title : Thai 480p

    Text #2
    ID : 5
    Format : PGS
    Codec ID : S_HDMV/PGS
    Codec ID/Info : The same subtitle format used on BDs/HD-DVDs
    Title : Thai PGS

    Text #3
    ID : 6
    Format : PGS
    Codec ID : S_HDMV/PGS
    Codec ID/Info : The same subtitle format used on BDs/HD-DVDs
    Title : Eng PGS

    Text #4
    ID : 7
    Format : VobSub
    Codec ID : S_VOBSUB
    Codec ID/Info : The same subtitle format used on DVDs
    Title : Thai 480p



    ================================================== ====================================

    Harry Potter and the Deathly Hallows Part 1 (2010) แฮร์รี่ พอตเตอร์ กับเครื่องรางยมฑูต ตอน 1
    แฮร์รี่ รอน และเฮอร์ไมโอนี่ ออกเดินทางสู่ภารกิจที่เต็มไปด้วยภัยอันตราย เพื่อแกะรอยและทำลายความลับที่กุมความเป็นอมตะของโวล เดอมอร์ นั่นคือ ฮอร์ครักซ์ ในระหว่างหนีการตามล่าไปด้วยกันสามคน พวกเขาต้องพึ่งพากันและกันมากกว่าทุกครั้ง แต่พลังความชั่วร้ายที่อยู่รายรอบ ก็พยายามทำให้พวกเขาแยกออกจากกัน ในเวลาเดียวกันนั้น โลกของพ่อมดแม่มดก็ตกอยู่ในอันตรายอันใหญ่หลวง สงครามที่ทุกคนหวาดวิตกมายาวนานได้เริ่มต้นขึ้น และเจ้าแห่งศาสตร์มืดที่สามารถยึดครองกระทรวงเวทย์มน ตร์ไปจนถึงฮอกวอตส์ ก็คุกคามและจับกุมตัวทุกคนที่เป็นปฏิปักษ์ จากผู้ถูกเลือกกลายเป็นผู้ถูกล่า เมื่อผู้เสพความตายได้รับคำบัญชาให้จับตัวแฮร์รี่มาม อบแก่โวลเดอมอร์ แบบยังมีชีวิตอยู่
    Quote:
    Directors : David Yates
    Writers : J.K. Rowling , Steve Kloves
    Genre : Adventure , Family , Fantasy
    Cast : Daniel Radcliffe , Emma Watson , Rupert Grint
    Country : UK , USA
    Release Date : 19 November 2010 (Thailand)

    IMDb : http://www.imdb.com/title/tt0926084/

    General
    Format : Matroska
    Format version : Version 4 / Version 2
    File size : 4.29 GiB
    Duration : 2h 26mn
    Overall bit rate : 4 208 Kbps
    Encoded date : UTC 2014-12-12 03:13:54
    Writing application : mkvmerge v7.3.0 ( Nouages ) 64bit built on Oct 22 2014 18:53:34
    Writing library : libebml v1.3.0 + libmatroska v1.4.1

    Video
    ID : 1
    Format : AVC
    Format/Info : Advanced Video Codec
    Format profile : [email protected]
    Format settings, CABAC : Yes
    Format settings, ReFrames : 4 frames
    Codec ID : V_MPEG4/ISO/AVC
    Duration : 2h 26mn
    Bit rate mode : Variable
    Bit rate : 2 760 Kbps
    Maximum bit rate : 100.0 Mbps
    Width : 1 920 pixels
    Height : 800 pixels
    Display aspect ratio : 2.40:1
    Frame rate : 23.976 fps
    Color space : YUV
    Chroma subsampling : 4:2:0
    Bit depth : 8 bits
    Scan type : Progressive
    Bits/(Pixel*Frame) : 0.075
    Stream size : 2.79 GiB (65%)
    Title : [1080 HQ] Harry Potter 7 Part 1 (2010) Blu-ray 1080p DTS x264 cosmoX
    Writing library : x264 core 130 r2273 b3065e6
    Encoding settings : cabac=1 / ref=4 / deblock=1:0:0 / analyse=0x3:0x133 / me=umh / subme=11 / psy=1 / psy_rd=1.00:0.15 / mixed_ref=1 / me_range=64 / chroma_me=1 / trellis=2 / 8x8dct=1 / cqm=0 / deadzone=21,11 / fast_pskip=0 / chroma_qp_offset=-3 / threads=16 / lookahead_threads=1 / sliced_threads=0 / nr=0 / decimate=1 / interlaced=0 / bluray_compat=0 / constrained_intra=0 / bframes=4 / b_pyramid=2 / b_adapt=2 / b_bias=0 / direct=3 / weightb=1 / open_gop=0 / weightp=2 / keyint=250 / keyint_min=23 / scenecut=40 / intra_refresh=0 / rc_lookahead=120 / rc=2pass / mbtree=1 / bitrate=2760 / ratetol=1.0 / qcomp=0.60 / qpmin=0 / qpmax=69 / qpstep=4 / cplxblur=20.0 / qblur=0.5 / vbv_maxrate=99999 / vbv_bufsize=99999 / nal_hrd=vbr / ip_ratio=1.40 / aq=1:1.00

    Audio #1
    ID : 2
    Format : AC-3
    Format/Info : Audio Coding 3
    Mode extension : CM (complete main)
    Codec ID : A_AC3
    Duration : 2h 26mn
    Bit rate mode : Constant
    Bit rate : 640 Kbps
    Channel(s) : 6 channels
    Channel positions : Front: L C R, Side: L R, LFE
    Sampling rate : 48.0 KHz
    Bit depth : 16 bits
    Compression mode : Lossy
    Stream size : 669 MiB (15%)
    Title : Thai AC3

    Audio #2
    ID : 3
    Format : DTS
    Format/Info : Digital Theater Systems
    Codec ID : A_DTS
    Duration : 2h 26mn
    Bit rate mode : Constant
    Bit rate : 755 Kbps
    Channel(s) : 6 channels
    Channel positions : Front: L C R, Side: L R, LFE
    Sampling rate : 48.0 KHz
    Bit depth : 24 bits
    Compression mode : Lossy
    Stream size : 788 MiB (18%)
    Title : Eng DTS

    Text #1
    ID : 4
    Format : VobSub
    Codec ID : S_VOBSUB
    Codec ID/Info : The same subtitle format used on DVDs
    Title : Thai 480p

    Text #2
    ID : 5
    Format : PGS
    Codec ID : S_HDMV/PGS
    Codec ID/Info : The same subtitle format used on BDs/HD-DVDs
    Title : Thai PGS

    Text #3
    ID : 6
    Format : PGS
    Codec ID : S_HDMV/PGS
    Codec ID/Info : The same subtitle format used on BDs/HD-DVDs
    Title : Eng PGS

    Text #4
    ID : 7
    Format : VobSub
    Codec ID : S_VOBSUB
    Codec ID/Info : The same subtitle format used on DVDs
    Title : Eng 480p


    ================================================== ====================================


    Harry Potter and the Deathly Hallows Part 2 (2011) แฮร์รี่ พอตเตอร์ กับเครื่องรางยมฑูต ตอน 2
    หลังจากที่พวกแฮร์รี่ออกเดินทางตามหา ฮอร์ครักซ์ ชิ้นส่วนวิญญาณของโวลเดอมอร์ที่มีทั้งหมด 7 ชิ้น และสามารถค้นพบและทำลายลงได้ โดยยังเหลือฮอร์ครักซ์ที่ยังไม่ถูกทำลายอยู่ 4 ชิ้น แต่สุดท้าย พวกแฮร์รี่กลับถูกผู้เสพความตายจับ แต่ก็สามารถหนีรอดมาได้โดยการสละชีวิตของด๊อบบี้ แฮร์รี่ล่วงรู้ถึงนัยยะสำคัญเกี่ยวกับฮอร์ครักซ์อีกช ิ้นหนึ่ง ที่เขาคาดว่าถูกซ่อนไว้ในธนาคารกริงกอตส์ ธนาคารที่มีด่านป้องกันแน่นหนาที่สุด พวกแฮร์รี่จึงวางแผนบุกเข้าไปเพื่อขโมยฮอร์ครักซ์ ในขณะเดียวกัน โวลเดอมอร์ล่วงรู้ว่าพวกแฮร์รี่กำลังตามล่าหาฮอร์ครั กซ์อยู่ จึงยกกองทัพเหล่าผู้เสพความตายเข้าปิดล้อมฮอกวอตส์ ที่ซึ่งเขาซ่อนฮอร์ครักซ์อีกชิ้นไว้เพื่อดักรอแฮร์รี ่ และครั้งนี้ไม่มีทางที่แฮร์รี่จะถอยอีกต่อไป เขาเลือกที่จะเผชิญหน้ากับโวลเดอมอร์ พร้อมด้วยกองทัพแห่งฮอกวอตส์และเหล่าผู้เสพความตาย ศึกครั้งนี้จึงเป็นศึกสุดท้ายที่มีโลกเวทมนตร์และโลก มนุษย์เป็นเดิมพัน
    Quote:
    Directors : David Yates
    Writers : J.K. Rowling , Steve Kloves
    Genre : Adventure , Fantasy , Mystery
    Cast : Daniel Radcliffe , Emma Watson , Rupert Grint
    Country : USA , UK
    Release Date : 14 July 2011 (Thailand)

    IMDb : http://www.imdb.com/title/tt1201607/

    General
    Format : Matroska
    Format version : Version 4 / Version 2
    File size : 4.30 GiB
    Duration : 2h 10mn
    Overall bit rate : 4 714 Kbps
    Encoded date : UTC 2014-12-13 02:38:48
    Writing application : mkvmerge v7.3.0 ( Nouages ) 64bit built on Oct 22 2014 18:53:34
    Writing library : libebml v1.3.0 + libmatroska v1.4.1

    Video
    ID : 1
    Format : AVC
    Format/Info : Advanced Video Codec
    Format profile : [email protected]
    Format settings, CABAC : Yes
    Format settings, ReFrames : 4 frames
    Codec ID : V_MPEG4/ISO/AVC
    Duration : 2h 10mn
    Bit rate mode : Variable
    Bit rate : 3 280 Kbps
    Maximum bit rate : 100.0 Mbps
    Width : 1 920 pixels
    Height : 800 pixels
    Display aspect ratio : 2.40:1
    Frame rate : 23.976 fps
    Color space : YUV
    Chroma subsampling : 4:2:0
    Bit depth : 8 bits
    Scan type : Progressive
    Bits/(Pixel*Frame) : 0.089
    Stream size : 2.94 GiB (68%)
    Title : [1080 HQ] Harry Potter 7 Part 2 (2011) Blu-ray 1080p DTS x264 cosmoX
    Writing library : x264 core 130 r2273 b3065e6
    Encoding settings : cabac=1 / ref=4 / deblock=1:0:0 / analyse=0x3:0x133 / me=umh / subme=11 / psy=1 / psy_rd=1.00:0.15 / mixed_ref=1 / me_range=64 / chroma_me=1 / trellis=2 / 8x8dct=1 / cqm=0 / deadzone=21,11 / fast_pskip=0 / chroma_qp_offset=-3 / threads=16 / lookahead_threads=1 / sliced_threads=0 / nr=0 / decimate=1 / interlaced=0 / bluray_compat=0 / constrained_intra=0 / bframes=4 / b_pyramid=2 / b_adapt=2 / b_bias=0 / direct=3 / weightb=1 / open_gop=0 / weightp=2 / keyint=250 / keyint_min=23 / scenecut=40 / intra_refresh=0 / rc_lookahead=120 / rc=2pass / mbtree=1 / bitrate=3280 / ratetol=1.0 / qcomp=0.60 / qpmin=0 / qpmax=69 / qpstep=4 / cplxblur=20.0 / qblur=0.5 / vbv_maxrate=99999 / vbv_bufsize=99999 / nal_hrd=vbr / ip_ratio=1.40 / aq=1:1.00

    Audio #1
    ID : 2
    Format : AC-3
    Format/Info : Audio Coding 3
    Mode extension : CM (complete main)
    Codec ID : A_AC3
    Duration : 2h 10mn
    Bit rate mode : Constant
    Bit rate : 640 Kbps
    Channel(s) : 6 channels
    Channel positions : Front: L C R, Side: L R, LFE
    Sampling rate : 48.0 KHz
    Bit depth : 16 bits
    Compression mode : Lossy
    Stream size : 597 MiB (14%)
    Title : Thai AC3

    Audio #2
    ID : 3
    Format : DTS
    Format/Info : Digital Theater Systems
    Codec ID : A_DTS
    Duration : 2h 10mn
    Bit rate mode : Constant
    Bit rate : 755 Kbps
    Channel(s) : 6 channels
    Channel positions : Front: L C R, Side: L R, LFE
    Sampling rate : 48.0 KHz
    Bit depth : 24 bits
    Compression mode : Lossy
    Stream size : 704 MiB (16%)
    Title : Eng DTS

    Text #1
    ID : 4
    Format : VobSub
    Codec ID : S_VOBSUB
    Codec ID/Info : The same subtitle format used on DVDs
    Title : Thai 480p

    Text #2
    ID : 5
    Format : PGS
    Codec ID : S_HDMV/PGS
    Codec ID/Info : The same subtitle format used on BDs/HD-DVDs
    Title : Thai PGS

    Text #3
    ID : 6
    Format : PGS
    Codec ID : S_HDMV/PGS
    Codec ID/Info : The same subtitle format used on BDs/HD-DVDs
    Title : Eng PGS

    Text #4
    ID : 7
    Format : VobSub
    Codec ID : S_VOBSUB
    Codec ID/Info : The same subtitle format used on DVDs
    Title : Eng 480p






    Download: cornfile
    [1080 HQ] Harry Potter 1 &_40;2001&_41; Blu-ray 1080p AC3 x264 cosmoX.mkv - 4.3 GB
    [1080 HQ] Harry Potter 2 &_40;2002&_41; Blu-ray 1080p AC3 x264 cosmoX.mkv - 4.3 GB
    [1080 HQ] Harry Potter 3 &_40;2004&_41; Blu-ray 1080p AC3 x264 cosmoX.mkv - 4.3 GB
    [1080 HQ] Harry Potter 4 &_40;2005&_41; Blu-ray 1080p AC3 x264 cosmoX.mkv - 4.3 GB
    [1080 HQ] Harry Potter 5 &_40;2007&_41; Blu-ray 1080p AC3 x264 cosmoX.mkv - 4.3 GB
    [1080 HQ] Harry Potter 6 &_40;2009&_41; Blu-ray 1080p AC3 x264 cosmoX.mkv - 4.3 GB
    [1080 HQ] Harry Potter 7 Part 1 &_40;2010&_41; Blu-ray 1080p DTS x264 cosmoX.mkv - 4.3 GB
    [1080 HQ] Harry Potter 7 Part 2 &_40;2011&_41; Blu-ray 1080p DTS x264 cosmoX.mkv - 4.3 GB

    Download: mekafile
    1
    http://www.filecondo.com/dl.php?f=Bgf9efbyMkSQ
    2
    http://www.filecondo.com/dl.php?f=UCff84byMiAt
    3
    http://www.filecondo.com/dl.php?f=rd33f3byMjGk
    4
    http://www.filecondo.com/dl.php?f=tg7ec1byMkFb
    5
    http://www.filecondo.com/dl.php?f=A1c345byMhW3
    6
    http://www.filecondo.com/dl.php?f=Ga9fd2byMkZC
    7
    http://www.filecondo.com/dl.php?f=RS2ac8byMfRe
    8
    http://www.filecondo.com/dl.php?f=73ce2fbyMljW

  2. The Following User Says Thank You to Duckload.us For This Useful Post:

    noi54 (01-05-2018)

  3. #2
    Senior Member
    สมัครเมื่อ
    Oct 2013
    โพสต์
    2,137
    Thanks
    0
    Thanked 0 Times in 0 Posts
    ขอบคุณครับ

  4. #3
    Member
    สมัครเมื่อ
    Jun 2020
    โพสต์
    43
    Thanks
    1
    Thanked 0 Times in 0 Posts
    ไฟล์เสียค่า

  5. #4
    Junior Member
    สมัครเมื่อ
    Dec 2013
    โพสต์
    15
    Thanks
    1
    Thanked 0 Times in 0 Posts
    6กับ7 โหลดไม่ได้ครับ

  6. #5
    Junior Member
    สมัครเมื่อ
    Oct 2018
    โพสต์
    2
    Thanks
    0
    Thanked 0 Times in 0 Posts
    4-8 โหลดไม่ได้ครับ File condo

+ ตอบกลับกระทู้

ข้อมูลกระทู้

Users Browsing this Thread

ในขณะนี้มี 1 ท่านดูกระทู้อยู่. (0 สมาชิกและ 1 ผู้เยี่ยมชม)

     

กฎการโพสต์ข้อความ

  • ท่าน ไม่สามารถ ตั้งกระทู้ใหม่ได้
  • ท่าน ไม่สามารถ ตอบกระทู้ได้
  • ท่าน ไม่สามารถ แนบไฟล์ได้
  • ท่าน ไม่สามารถ แก้ไขข้อความโพสต์ได้
  • BB code สถานะ เปิด
  • Smilies สถานะ เปิด
  • [IMG] สถานะ เปิด
  • HTML สถานะ ปิด