+ ตอบกลับกระทู้
สรุปผลการค้นหา 1 ถึง 1 จากทั้งหมด 1
  1. #1
    Administrators รูปส่วนตัว Duckload.us
    สมัครเมื่อ
    Dec 2010
    โพสต์
    108,584
    Thanks
    7
    Thanked 113,652 Times in 52,405 Posts

    Question [อินเดีย]DANGAL sub THAI PGS จาก netflix-WEB-DL.AC-3.1080p. [Rip]-[Soundtrack บรรยายไทย]

    DANGAL



    Subtitle : Thai PGS (Netflix)
    Sound : Hindi AC3



    รีวิวภาพยนต์เรื่อง Dangal จากคุณเล็ก Thitapa Lek
    ความยาวหนัง 160 นาที
    Mahavir Singh Phogat(Aamir Khan) อดีตนักกีฬามวยปล้ำทีมชาติอินเดียผู้ไม่ประสพความสำเ ร็จในการแข่งขันระดับนานาชาติ และทำให้เขาต้องเลิกเล่นมวยปล้ำเพราะพ่อเขายื่นคำขาด ให้เลือกงาน ซึ่งนั่นมันก็เหมือนฝันร้ายในชีวิตของเขาและทำให้เขา ฝังใจมากว่าอยากได้เหรียญทองในระดับนานาชาติมาให้กับ ประเทศอินเดีย เขาตั้งใจว่าถ้าเขามีลูกชายก็จะให้เล่นมวยปล้า แต่เขาก็ต้องผิดหวังเพราะลูกของเขาเป็นผู้หญิงทั้งหม ด ทำให้เขาต้องเก็บความฝันลงในกล่อง แต่แล้ววันหนึ่งเขาก็เห็นอะไรบางอย่างในตัวของลูกสาว สองคน คือ Geeta(Fatima Shaikh)และ Babita ( Sanya Malhotra) ที่ไปมีเรื่องกับเด็กผู้ชายสองคนแต่เด็กผู้ชายกลับสู ้ลูกสาวของเขาไม่ได้เลย
    หลังจากนั้นเป็นต้นมา mahavir จับลูกสาวทั้งสองคนฝึกมวยปล้ำด้วยตัวเอง เขาทุ่มเททุกอย่างฝึกลูกอย่างหนักทุกวันท่ามกลางเสีย หัวเราะเยาะ เสียงนินทา คำดูถูก เพราะครอบครัวเขาอาศัยอยู่หมู่บ้านเล็กๆในรัฐหรยานา เมื่อ geeta พร้อม เขาพาลูกตระเวนแข่งในระดับเล็กๆแข้งกับเด็กผู้ชายและ เอาชนะได้จนไปถึงระดับประเทศ ความฝันของ mahvir จะเป็นจริงหรือไม่หาคำตอบได้ในหนังนะจ๊ะ


    Cr:https://www.facebook.com/IndiaDreamT...935230527189:0

    Format : Matroska
    Format version : Version 4 / Version 2
    File size : 4.84 GiB
    Duration : 2 h 40 min
    Overall bit rate : 4 316 kb/s
    Encoded date : UTC 2018-02-13 17:11:55
    Writing application : mkvmerge v20.0.0 ( I Am The Sun ) 64-bit
    Writing library : libebml v1.3.5 + libmatroska v1.4.8

    Video
    ID : 2
    Format : AVC
    Format/Info : Advanced Video Codec
    Format profile : [email protected]
    Format settings : CABAC / 2 Ref Frames
    Format settings, CABAC : Yes
    Format settings, RefFrames : 2 frames
    Format settings, GOP : M=1, N=12
    Codec ID : V_MPEG4/ISO/AVC
    Duration : 2 h 40 min
    Bit rate : 4 083 kb/s
    Width : 1 920 pixels
    Height : 1 080 pixels
    Display aspect ratio : 16:9
    Frame rate mode : Constant
    Frame rate : 24.000 FPS
    Color space : YUV
    Chroma subsampling : 4:2:0
    Bit depth : 8 bits
    Scan type : Progressive
    Bits/(Pixel*Frame) : 0.082
    Stream size : 4.58 GiB (95%)
    Default : Yes
    Forced : No

    Audio
    ID : 1
    Format : E-AC-3
    Format/Info : Enhanced Audio Coding 3
    Codec ID : A_EAC3
    Duration : 2 h 40 min
    Bit rate mode : Constant
    Bit rate : 192 kb/s
    Channel(s) : 6 channels
    Channel positions : Front: L C R, Side: L R, LFE
    Sampling rate : 48.0 kHz
    Frame rate : 187.500 FPS (256 SPF)
    Compression mode : Lossy
    Delay relative to video : -42 ms
    Stream size : 221 MiB (4%)
    Service kind : Complete Main
    Default : Yes
    Forced : No

    Text
    ID : 3
    Format : PGS
    Muxing mode : zlib
    Codec ID : S_HDMV/PGS
    Codec ID/Info : Picture based subtitle format used on BDs/HD-DVDs
    Duration : 2 h 39 min
    Bit rate : 69.2 kb/s
    Count of elements : 4210
    Stream size : 78.9 MiB (2%)
    Default : Yes
    Forced : No



    : -= Screenshots =-


    Download: cornfile
    http://cornfile.com/19xb0ubexji4
    Download: mekafile
    http://www.mekafile.com/dl.php?f=GDef5fbBwVu7

  2. The Following User Says Thank You to Duckload.us For This Useful Post:

    kappa (03-21-2019)

+ ตอบกลับกระทู้

ข้อมูลกระทู้

Users Browsing this Thread

ในขณะนี้มี 1 ท่านดูกระทู้อยู่. (0 สมาชิกและ 1 ผู้เยี่ยมชม)

     

กฎการโพสต์ข้อความ

  • ท่าน ไม่สามารถ ตั้งกระทู้ใหม่ได้
  • ท่าน ไม่สามารถ ตอบกระทู้ได้
  • ท่าน ไม่สามารถ แนบไฟล์ได้
  • ท่าน ไม่สามารถ แก้ไขข้อความโพสต์ได้
  • BB code สถานะ เปิด
  • Smilies สถานะ เปิด
  • [IMG] สถานะ เปิด
  • HTML สถานะ ปิด