+ ตอบกลับกระทู้
สรุปผลการค้นหา 1 ถึง 1 จากทั้งหมด 1
  1. #1
    Administrators รูปส่วนตัว Duckload.us
    สมัครเมื่อ
    Dec 2010
    โพสต์
    129,665
    Thanks
    7
    Thanked 133,637 Times in 59,173 Posts

    Lightbulb [ญี่ปุ่น]-Mobile Suit Gundam Iron-Blooded Orphans SS1 1080p พากษ์ไทย-Remux.H.264.1080p. [rip from Master]-[พากย์ไทย]

    Mobile Suit Gundam: Iron-Blooded Orphans



    Rating: 7.9/10 Year: n/A Genres: Animation / Action / Drama / Sci-Fi Runtime: n/A Language: Japanese Director: n/A Writers: Yoshiyuki Tomino / Hajime Yatate / Yoshiki Tanaka Cast: Kengo Kawanishi / Ray Chase / Yoshimasa Hosoyaโ€ฆ Plot:

    300 years after a great conflict between Earth and Mars known as the "Calamity War," a woman named Cordelia sets out on a journey to Earth to speak for the independence of the Martian city of Chryse, which is under the control of the Earth government. Escorting her are members of the private security company CGS, Mikazuki Augus and Orga Itsuka. When a group named Gjallarhorn attacks CGS and Cordelia, Orga sees this as a chance to rebel against CGS and launch a coup. Mikazuki and Orga are thrust into a new conflict. To fend off Gjallarhorn, Mikazuki rides an old mobile suit from the Calamity War, powered by a nuclear reactor, the Gundam Barbatos. Written by Source: ANN


    เป็น Gundam อีหนึ่งภาคที่มันมาก ไฟล์ที่คนอื่นปล่อยกันอยู่นั้นเป็นแค่ 720p แต่ของผมเป็น 1080p
    กล้า ท้า ให้ลอง

    General
    Unique ID : 176605161121073958761704088057615177207 (0x84DCEAB44C7C1ADCBF7D016028C355F7)
    Complete name : D:Mobile Suit Gundam Iron-Blooded Orphans SS1Mobile Suit Gundam Iron-Blooded Orphans EP01.mkv
    Format : Matroska
    Format version : Version 4 / Version 2
    File size : 848 MiB
    Duration : 24 min 35 s
    Overall bit rate mode : Constant
    Overall bit rate : 4 823 kb/s
    Movie name : Spirit
    Encoded date : UTC 2016-10-21 17:19:19
    Writing application : mkvmerge v9.5.0 ( Quiet Fire ) 64bit
    Writing library : libebml v1.3.4 + libmatroska v1.4.5
    Attachments : OpenSans-Semibold.ttf

    Video
    ID : 1
    Format : AVC
    Format/Info : Advanced Video Codec
    Format profile : [email protected]
    Format settings : CABAC / 4 Ref Frames
    Format settings, CABAC : Yes
    Format settings, ReFrames : 4 frames
    Codec ID : V_MPEG4/ISO/AVC
    Duration : 24 min 35 s
    Bit rate mode : Constant
    Bit rate : 4 628 kb/s
    Nominal bit rate : 5 808 kb/s
    Width : 1 920 pixels
    Height : 1 080 pixels
    Display aspect ratio : 16:9
    Frame rate mode : Constant
    Frame rate : 23.976 (24000/1001) FPS
    Standard : NTSC
    Color space : YUV
    Chroma subsampling : 4:2:0
    Bit depth : 8 bits
    Scan type : Progressive
    Bits/(Pixel*Frame) : 0.093
    Stream size : 814 MiB (96%)
    Title : Mobile Suit Gundam - Iron-Blooded Orphans
    Language : Japanese
    Default : Yes
    Forced : No
    Color range : Limited
    Color primaries : BT.709
    Transfer characteristics : BT.709
    Matrix coefficients : BT.709

    Audio
    ID : 2
    Format : AC-3
    Format/Info : Audio Coding 3
    Codec ID : A_AC3
    Duration : 24 min 35 s
    Bit rate mode : Constant
    Bit rate : 192 kb/s
    Channel(s) : 2 channels
    Channel positions : Front: L R
    Sampling rate : 48.0 kHz
    Frame rate : 31.250 FPS (1536 SPF)
    Bit depth : 16 bits
    Compression mode : Lossy
    Delay relative to video : 8 ms
    Stream size : 33.8 MiB (4%)
    Title : Mobile Suit Gundam - Iron-Blooded Orphans
    Language : Thai
    Service kind : Complete Main
    Default : Yes
    Forced : No



    1
    http://www.filecondo.com/dl.php?f=pbd45c1EPcWp
    2
    http://www.filecondo.com/dl.php?f=kfd9891EPcXo
    3
    http://www.filecondo.com/dl.php?f=b87ba61EPcYm
    4
    http://www.filecondo.com/dl.php?f=g8f36c1EPcZj
    5
    http://www.filecondo.com/dl.php?f=gdf0051EPd0h
    6
    http://www.filecondo.com/dl.php?f=F9899b1EPd1f
    7
    http://www.filecondo.com/dl.php?f=56330d1EPd2e
    8
    http://www.filecondo.com/dl.php?f=1a5c321EPd3b
    9
    http://www.filecondo.com/dl.php?f=z90a8c1EPd4e
    10
    http://www.filecondo.com/dl.php?f=Xa59391EPd58
    11
    http://www.filecondo.com/dl.php?f=xaf9501EPd65
    12
    http://www.filecondo.com/dl.php?f=a9fd4c1EPd73
    13
    http://www.filecondo.com/dl.php?f=Wae45b1EPd82
    14
    http://www.filecondo.com/dl.php?f=O4f6361EPd8Z
    15
    http://www.filecondo.com/dl.php?f=r6bf921EPd9Y
    16
    http://www.filecondo.com/dl.php?f=i053fe1EPdaV
    17
    http://www.filecondo.com/dl.php?f=i89ac01EPdbU
    18
    http://www.filecondo.com/dl.php?f=Hebd661EPdcS
    19
    http://www.filecondo.com/dl.php?f=ze2b721EPddP
    20
    http://www.filecondo.com/dl.php?f=w3526a1EPdeT
    21
    http://www.filecondo.com/dl.php?f=Q53e3e1EPdfL
    22
    http://www.filecondo.com/dl.php?f=r82d5c1EPdgK
    23
    http://www.filecondo.com/dl.php?f=O157131EPdhI
    24
    http://www.filecondo.com/dl.php?f=d94f081EPdiG
    25
    http://www.filecondo.com/dl.php?f=9930651EPdjE

  2. The Following User Says Thank You to Duckload.us For This Useful Post:

    scsyn (03-13-2018)

+ ตอบกลับกระทู้

ข้อมูลกระทู้

Users Browsing this Thread

ในขณะนี้มี 1 ท่านดูกระทู้อยู่. (0 สมาชิกและ 1 ผู้เยี่ยมชม)

     

กฎการโพสต์ข้อความ

  • ท่าน ไม่สามารถ ตั้งกระทู้ใหม่ได้
  • ท่าน ไม่สามารถ ตอบกระทู้ได้
  • ท่าน ไม่สามารถ แนบไฟล์ได้
  • ท่าน ไม่สามารถ แก้ไขข้อความโพสต์ได้
  • BB code สถานะ เปิด
  • Smilies สถานะ เปิด
  • [IMG] สถานะ เปิด
  • HTML สถานะ ปิด