+ ตอบกลับกระทู้
สรุปผลการค้นหา 1 ถึง 2 จากทั้งหมด 2
  1. #1
    Administrators รูปส่วนตัว Duckload.us
    สมัครเมื่อ
    Dec 2010
    โพสต์
    111,417
    Thanks
    7
    Thanked 116,834 Times in 53,179 Posts

    Question [อินเดีย]-[**มาใหม่ร้อนๆ!!! 4K 2160P**] • [Netflix] • Sacred Games season 1 (2018) เซเคร็ด เกมส์ ซีซัน 1 [2160p Netflix WEBRip DD5.1 x264] • [เสียงอินเดีย 5.1+เสียงอังกฤษ 5.1] • [บรรยายไทย + อังกฤษ + ซับไทย Master From Netflix คมชัด ]













    ดาราดังแห่งบอลลีวูด ซาอีฟ อาลี ข่านและนาวาซัดดิน ซิดดิกีแสดงนำ


    ในซีรีส์ระทึกขวัญสุดดาร์ ก ที่สร้างจากนิยายของวิกรม จันทรา


    • • •

    2160p Netflix WEBRip DD5.1 x264



    ตอน เซเคร็ด เกมส์

    ปีเปิดตัว: 2018

    เรื่องราวของนายตำรวจ อาชญากรตัวพ่อ ซุปตาร์บอลลีวู้ด กลุ่มนักการเมือง กลุ่มลัทธินิยม สายลับ และผู้ก่อการร้าย
    ชีวิตของผู้คนต่างคนชั้นวรรณะ ไม่ว่าจะเป็นรวย ดัง ยากจนและพวกกระหายเลือดที่ต้องมาร่วมชะตากรรมกันท่าม กลางความโกลาหลของเมืองมุมไบ
    โดยซีรีส์เรื่องนี้ดัดแปลงมาจากวรรณกรรมเรื่อง Sacred Games วรรณกรรมขายดีและได้รับคำชมอย่างมากของวิกรามจันทรา (Vikram Chandra)
    Sartaj Singh นายตำรวจแห่งเมืองบอมเบย์ผู้ชอบดูถูกเหยียดหยามผู้คน ถูกเรียกตัวให้ประกอบภารกิจหนึ่งโดยบุคคล
    นิรนามซึ่งให้คำสัญญาจะช่วยจับกุมอาชญากรตัวเป้ง Ganesh Gaitonde แห่ง G-Company หากเขาทำภารกิจสำเร็จ
    ในขณะที่เหตุการณ์กำลังครุกรุ่นและ Sartaj กำลังสืบเสาะหาข้อมูลของเหยื่อ บางสิ่งบางอย่างก็ได้ถูกเปิดเผยขึ้นว่าเกมที่เขาทั้ง 2 คน
    กำลังเล่นอยู่นั้น แท้จริงแล้วเป็นแค่ส่วนหนึ่งของอาชญากรรมครั้งใหญ่ที ่ขยายวงกว้างไปไกลกว่าแค่ในเมืองที่พวกเขาอาศัยอยู่

    1. อัศวัตถามา 51 นาที
    โทรศัพท์ลึกลับจากชายนิรนามเป็นเบาะแสที่ทำให้เจ้าหน ้าที่ตำรวจซาร์เทจ ซิงห์ออกตามล่าอาชญากรอันตรายทั่วมุมไบ

    2. ความแตกตื่น 50 นาที
    ข่าวของคเนศ ไกทอนเดสร้างความแตกตื่นในกลุ่มผู้มีชื่อเสียงของมุม ไบ ทั้งนักการเมืองไปจนถึงเหล่าดาราดัง และเมื่อซาร์เทจถูกปลดออกจากการสืบคดี เขาจึงเริ่มการสืบสวนของตัวเอง

    3. อัตถาภิกับวัตถาภิ 48 นาที
    ผู้หญิงที่ซาร์เทจพบในบังเกอร์ทำให้เขาตามจนถึงตัวบั นที สมุนของไกทอนเด ในภาพย้อนอดีต ไกทอนเดนึกถึงตอนที่ขโมยของสำคัญจากคู่อริ สุไลมาน อิซา

    4. การเข่นฆ่า 55 นาที
    นัยนิกา ดาราหน้าใหม่ไปหาบันทีพร้อมซ่อนกล้องไว้ ในช่วงกลางยุค 80 ไกทอนเดค้นพบธุรกิจหนึ่งที่ทำกำไรงามยิ่งกว่าการค้าย าและปืน นั่นคือการเมือง

    5. ปฏิบัติการรอว์ 45 นาที
    เพื่อช่วยนัยนิกา ซาร์เทจต้องเข้าไปแทรกแซงปฏิบัติการรอว์ ในปี 1992 สถานการณ์ทางการเมืองเริ่มไม่สงบ และความบาดหมางระหว่างไกทอนเดและอิซาทำให้เกิดเหตุกา รณ์นองเลือดขึ้น

    6. เรื่องลึกลับ 47 นาที
    เกิดผลร้ายตามมาเมื่อเคตคาร์ เจ้าหน้าที่คนสนิทของซาร์เทจ ถูกกดดันให้สืบสวนคดีของชายหนุ่มที่หายตัวไปจากสลัมช าวมุสลิม

    7. รุทร 43 นาที
    เพื่อแก้ปมที่เหลือของคดี ซาร์เทจกับอัญชลีร่วมมือกันอีกครั้งเพื่อหาคำตอบว่า ไตรเวทผู้ลึกลับเกี่ยวข้องกับคำทำนายของไกทอนเดอย่าง ไร

    8. ยยาติ 47 นาที
    เพื่อปกป้องมุมไบให้รอดพ้นจากหายนะที่กำลังจะเกิดขึ้ น ซาร์เทจต้องรีบเร่งหาคำตอบว่าพ่อคนที่สามของไกทอนเดค ือใครและแผนการที่วางไว้จะทำให้เกิดเหตุการณ์อะไรขึ้ นในวันที่ 25

    ตัวอย่าง ตอน...อัศวัตถามา 51 นาที



    Format : Matroska
    Format version : Version 2
    File size : 9.53 GiB
    Duration : 51 min 18 s
    Overall bit rate : 26.6 Mb/s
    Movie name : Sacred Games S01E01 Ashwatthama 2160p Netflix WEBRip DD5.1 [email protected]

    Video
    ID : 1
    Format : AVC
    Format/Info : Advanced Video Codec
    Format profile : [email protected]
    Format settings : CABAC / 5 Ref Frames
    Format settings, CABAC : Yes
    Format settings, RefFrames : 5 frames
    Muxing mode : Header stripping
    Codec ID : V_MPEG4/ISO/AVC
    Duration : 51 min 18 s
    Bit rate : 25.3 Mb/s
    Width : 3 840 pixels
    Height : 1 920 pixels
    Display aspect ratio : 2.000
    Frame rate mode : Constant
    Frame rate : 25.000 FPS
    Color space : YUV
    Chroma subsampling : 4:2:0
    Bit depth : 8 bits
    Scan type : Progressive
    Bits/(Pixel*Frame) : 0.137
    Stream size : 9.07 GiB (95%)
    Title : Sacred Games S01E01 Ashwatthama 2160p Netflix WEBRip DD5.1 [email protected]
    Writing library : x264 core 155 r2901 7d0ff22
    Encoding settings : cabac=1 / ref=5 / deblock=1:-3:-3 / analyse=0x3:0x133 / me=umh / subme=10 / psy=1 / psy_rd=1.00:0.00 / mixed_ref=1 / me_range=48 / chroma_me=1 / trellis=2 / 8x8dct=1 / cqm=0 / deadzone=21,11 / fast_pskip=1 / chroma_qp_offset=-2 / threads=24 / lookahead_threads=4 / sliced_threads=0 / nr=0 / decimate=0 / interlaced=0 / bluray_compat=0 / constrained_intra=0 / bframes=8 / b_pyramid=2 / b_adapt=2 / b_bias=0 / direct=3 / weightb=1 / open_gop=0 / weightp=2 / keyint=250 / keyint_min=25 / scenecut=40 / intra_refresh=0 / rc=crf / mbtree=0 / crf=18.0 / qcomp=0.70 / qpmin=0 / qpmax=69 / qpstep=4 / ip_ratio=1.40 / pb_ratio=1.30 / aq=3:0.70
    Language : English
    Default : Yes
    Forced : No

    Audio #1
    ID : 2
    Format : AC-3
    Format/Info : Audio Coding 3
    Muxing mode : Header stripping
    Codec ID : A_AC3
    Duration : 51 min 18 s
    Bit rate mode : Constant
    Bit rate : 384 kb/s
    Channel(s) : 6 channels
    Channel positions : Front: L C R, Side: L R, LFE
    Sampling rate : 48.0 kHz
    Frame rate : 31.250 FPS (1536 SPF)
    Bit depth : 16 bits
    Compression mode : Lossy
    Stream size : 141 MiB (1%)
    Title : Hindi 5.1
    Language : Hindi
    Service kind : Complete Main
    Default : Yes
    Forced : No

    Audio #2
    ID : 4
    Format : AC-3
    Format/Info : Audio Coding 3
    Muxing mode : Header stripping
    Codec ID : A_AC3
    Duration : 51 min 18 s
    Bit rate mode : Constant
    Bit rate : 384 kb/s
    Channel(s) : 6 channels
    Channel positions : Front: L C R, Side: L R, LFE
    Sampling rate : 48.0 kHz
    Frame rate : 31.250 FPS (1536 SPF)
    Bit depth : 16 bits
    Compression mode : Lossy
    Stream size : 141 MiB (1%)
    Title : English 5.1
    Language : English
    Service kind : Complete Main
    Default : No
    Forced : No

    Text #1
    ID : 3
    Format : UTF-8
    Codec ID : S_TEXT/UTF8
    Codec ID/Info : UTF-8 Plain Text
    Title : English
    Language : English
    Default : No
    Forced : No

    Text #2
    ID : 5
    Format : PGS
    Muxing mode : zlib
    Codec ID : S_HDMV/PGS
    Codec ID/Info : Picture based subtitle format used on BDs/HD-DVDs
    Title : Thai PGS
    Language : Thai
    Default : Yes
    Forced : No



































    Sacred Games S01E01 Ashwatthama 2160p Netflix WEBRip DD5.1 [email protected] - 9.5 GB
    Sacred Games S01E02 Halahala 2160p Netflix WEBRip DD5.1 [email protected] - 9.8 GB
    Sacred Games S01E03 Aatapi Vatapi 2160p Netflix WEBRip DD5.1 [email protected] - 8.6 GB
    Sacred Games S01E04 Brahmahatya 2160p Netflix WEBRip DD5.1 [email protected] - 10.5 GB
    Sacred Games S01E05 Sarama 2160p Netflix WEBRip DD5.1 [email protected] - 8.5 GB
    Sacred Games S01E06 Pretakalpa 2160p Netflix WEBRip DD5.1 [email protected] - 9.8 GB
    Sacred Games S01E07 Rudra 2160p Netflix WEBRip DD5.1 [email protected] - 7.8 GB
    Sacred Games S01E08 Yayati 2160p Netflix WEBRip DD5.1 [email protected] - 9.4 GB


    1
    http://www.mekafile.com/dl.php?f=LJ28a2bHItNi
    2
    http://www.mekafile.com/dl.php?f=z60942bHItAS
    3
    http://www.mekafile.com/dl.php?f=t9c81ebHIt7D
    4
    http://www.mekafile.com/dl.php?f=BAde65bHItgr
    5
    http://www.mekafile.com/dl.php?f=Ovd625bHIt15
    6
    http://www.mekafile.com/dl.php?f=HD4010bHIsV6
    7
    http://www.mekafile.com/dl.php?f=NM3bc7bHItrv
    8
    http://www.mekafile.com/dl.php?f=fC82fdbHJSZy

  2. #2
    Senior Member
    สมัครเมื่อ
    Jun 2014
    โพสต์
    2,638
    Thanks
    0
    Thanked 0 Times in 0 Posts
    ขอบคุณครับ

+ ตอบกลับกระทู้

ข้อมูลกระทู้

Users Browsing this Thread

ในขณะนี้มี 1 ท่านดูกระทู้อยู่. (0 สมาชิกและ 1 ผู้เยี่ยมชม)

     

กฎการโพสต์ข้อความ

  • ท่าน ไม่สามารถ ตั้งกระทู้ใหม่ได้
  • ท่าน ไม่สามารถ ตอบกระทู้ได้
  • ท่าน ไม่สามารถ แนบไฟล์ได้
  • ท่าน ไม่สามารถ แก้ไขข้อความโพสต์ได้
  • BB code สถานะ เปิด
  • Smilies สถานะ เปิด
  • [IMG] สถานะ เปิด
  • HTML สถานะ ปิด