+ ตอบกลับกระทู้
สรุปผลการค้นหา 1 ถึง 5 จากทั้งหมด 5
  1. #1
    Senior Member
    สมัครเมื่อ
    Feb 2018
    โพสต์
    1,160
    Thanks
    0
    Thanked 679 Times in 449 Posts

    Arrow 1080p [Full-HD] / [Mini-HD] Rio Bravo (1959) : ยอดนายอำเภอใจเพชร !!! [เสียง:อังกฤษ DTS - บรรยาย:ไทย,อังกฤษ] [ซับไทย PGS]







    1080p FULL HD

    [email protected]
    Format : Matroska
    Format version : Version 4 / Version 2
    File size : 11.8 GiB
    Duration : 2 h 21 min
    Overall bit rate : 12.0 Mb/s
    Movie name : [email protected]
    Encoded date : UTC 2018-08-23 10:33:23
    Writing application : mkvmerge v20.0.0 ('I Am The Sun') 64-bit
    Writing library : libebml v1.3.5 + libmatroska v1.4.8
    Cover : Yes
    Attachments : cover.jpg

    Video
    ID : 1
    Format : AVC
    Format/Info : Advanced Video Codec
    Format profile : [email protected]
    Format settings, CABAC : Yes
    Format settings, RefFrames : 3 frames
    Codec ID : V_MPEG4/ISO/AVC
    Duration : 2 h 21 min
    Bit rate : 10.2 Mb/s
    Width : 1 920 pixels
    Height : 1 080 pixels

    Display aspect ratio : 16:9
    Frame rate mode : Constant
    Frame rate : 23.976 (24000/1001) FPS
    Color space : YUV
    Chroma subsampling : 4:2:0
    Bit depth : 8 bits
    Scan type : Progressive
    Bits/(Pixel*Frame) : 0.206
    Stream size : 10.1 GiB (85%)
    Title : @@[email protected]@
    Writing library : x264 core 148 r2638 7599210
    Encoding settings : cabac=1 / ref=4 / deblock=1:-1:-1 / analyse=0x3:0x113 / me=umh / subme=9 / psy=1 / psy_rd=1.00:0.00 / mixed_ref=1 / me_range=24 / chroma_me=1 / trellis=2 / 8x8dct=1 / cqm=2 / deadzone=21,11 / fast_pskip=1 / chroma_qp_offset=-5 / threads=12 / lookahead_threads=1 / sliced_threads=0 / nr=0 / decimate=0 / interlaced=0 / bluray_compat=0 / constrained_intra=0 / bframes=5 / b_pyramid=1 / b_adapt=2 / b_bias=2 / direct=3 / weightb=1 / open_gop=0 / weightp=2 / keyint=230 / keyint_min=22 / scenecut=40 / intra_refresh=0 / rc_lookahead=45 / rc=2pass / mbtree=1 / bitrate=10225 / ratetol=1.0 / qcomp=0.60 / qpmin=10 / qpmax=41 / qpstep=4 / cplxblur=20.0 / qblur=0.5 / ip_ratio=1.30 / aq=1:1.00
    Language : English
    Default : Yes
    Forced : No

    Audio #1
    ID : 2
    Format : DTS
    Format/Info : Digital Theater Systems
    Mode : 16
    Format settings, Endianness : Big
    Codec ID : A_DTS
    Duration : 2 h 21 min
    Bit rate mode : Constant
    Bit rate : 1 536 kb/s
    Channel(s) : 1 channel
    Channel positions : Front: C
    Sampling rate : 48.0 kHz
    Frame rate : 93.750 FPS (512 SPF)
    Bit depth : 16 bits
    Compression mode : Lossy
    Stream size : 1.51 GiB (13%)
    Title : Eng DTS
    Language : English
    Default : Yes
    Forced : No

    Audio #2
    ID : 3
    Format : AC-3
    Format/Info : Audio Coding 3
    Format settings, Endianness : Big
    Codec ID : A_AC3
    Duration : 2 h 21 min
    Bit rate mode : Constant
    Bit rate : 192 kb/s
    Channel(s) : 1 channel
    Channel positions : Front: C
    Sampling rate : 48.0 kHz
    Frame rate : 31.250 FPS (1536 SPF)
    Bit depth : 16 bits
    Compression mode : Lossy
    Stream size : 194 MiB (2%)
    Title : Eng AC3
    Language : English
    Service kind : Complete Main
    Default : No
    Forced : No

    Text #1
    ID : 4
    Format : UTF-8
    Codec ID : S_TEXT/UTF8
    Codec ID/Info : UTF-8 Plain Text
    Duration : 2 h 19 min
    Bit rate : 73 b/s
    Count of elements : 2097
    Stream size : 75.1 KiB (0%)
    Title : Eng
    Language : English
    Default : No
    Forced : No

    Text #2
    ID : 5
    Format : VobSub
    Muxing mode : zlib
    Codec ID : S_VOBSUB
    Codec ID/Info : Picture based subtitle format used on DVDs
    Duration : 2 h 15 min
    Bit rate : 3 920 b/s
    Count of elements : 1986
    Stream size : 3.81 MiB (0%)
    Title : Thai 480p
    Language : Thai
    Default : No
    Forced : Yes

    Text #3
    ID : 6
    Format : VobSub
    Muxing mode : zlib
    Codec ID : S_VOBSUB
    Codec ID/Info : Picture based subtitle format used on DVDs
    Duration : 2 h 15 min
    Bit rate : 12.2 kb/s
    Count of elements : 1986
    Stream size : 11.9 MiB (0%)
    Title : Thai 1080p
    Language : Thai
    Default : No
    Forced : Yes

    Text #4
    ID : 7
    Format : PGS
    Muxing mode : zlib
    Codec ID : S_HDMV/PGS
    Codec ID/Info : Picture based subtitle format used on BDs/HD-DVDs
    Duration : 2 h 15 min
    Bit rate : 56.8 kb/s
    Count of elements : 3972
    Stream size : 55.2 MiB (0%)
    Title : Thai PGS
    Language : Thai

    Default : Yes
    Forced : Yes

    Text #5
    ID : 8
    Format : PGS
    Muxing mode : zlib
    Codec ID : S_HDMV/PGS
    Codec ID/Info : Picture based subtitle format used on BDs/HD-DVDs
    Duration : 2 h 15 min
    Bit rate : 56.8 kb/s
    Count of elements : 3972
    Stream size : 55.2 MiB (0%)
    Title : Thai PGS YELLOW
    Language : Thai
    Default : No
    Forced : Yes

    ***MODIFIED BY @ENTHD***




    1080p Mini HD

    [email protected]
    Format : Matroska
    Format version : Version 4 / Version 2
    File size : 4.19 GiB
    Duration : 2 h 21 min
    Overall bit rate : 4 255 kb/s
    Movie name : Rio.Bravo.1959.BDRip.H.264.1080p-LQ.AC3.ENT-HD
    Encoded date : UTC 2017-05-08 00:31:26
    Writing application : mkvmerge v9.7.1 ('Pandemonium') 64bit
    Writing library : libebml v1.3.4 + libmatroska v1.4.5

    Video
    ID : 1
    Format : AVC
    Format/Info : Advanced Video Codec
    Format profile : [email protected]
    Format settings, CABAC : Yes
    Format settings, RefFrames : 4 frames
    Codec ID : V_MPEG4/ISO/AVC
    Duration : 2 h 21 min
    Bit rate : 4 000 kb/s
    Width : 1 920 pixels
    Height : 1 080 pixels

    Display aspect ratio : 16:9
    Frame rate mode : Constant
    Frame rate : 23.976 (24000/1001) FPS
    Color space : YUV
    Chroma subsampling : 4:2:0
    Bit depth : 8 bits
    Scan type : Progressive
    Bits/(Pixel*Frame) : 0.080
    Stream size : 3.94 GiB (94%)
    Title : Rio.Bravo.1959.BDRip.H.264.1080p-LQ.AC3.ENT-HD.AC3.ENT-HD
    Writing library : x264 core 119
    Encoding settings : cabac=1 / ref=1 / deblock=1:0:0 / analyse=0x3:0x3 / me=dia / subme=1 / psy=1 / psy_rd=1.00:0.00 / mixed_ref=0 / me_range=16 / chroma_me=1 / trellis=0 / 8x8dct=1 / cqm=0 / deadzone=21,11 / fast_pskip=1 / chroma_qp_offset=0 / threads=4 / sliced_threads=0 / nr=0 / decimate=1 / interlaced=0 / bluray_compat=0 / constrained_intra=0 / bframes=3 / b_pyramid=2 / b_adapt=1 / b_bias=0 / direct=1 / weightb=1 / open_gop=0 / weightp=1 / keyint=250 / keyint_min=23 / scenecut=40 / intra_refresh=0 / rc=abr / mbtree=0 / bitrate=4000 / ratetol=1.0 / qcomp=0.60 / qpmin=0 / qpmax=69 / qpstep=4 / ip_ratio=1.40 / pb_ratio=1.30 / aq=1:1.00
    Language : English
    Default : Yes
    Forced : No

    Audio
    ID : 2
    Format : AC-3
    Format/Info : Audio Coding 3
    Format settings, Endianness : Big
    Codec ID : A_AC3
    Duration : 2 h 21 min
    Bit rate mode : Constant
    Bit rate : 192 kb/s
    Channel(s) : 1 channel
    Channel positions : Front: C
    Sampling rate : 48.0 kHz
    Frame rate : 31.250 FPS (1536 SPF)
    Bit depth : 16 bits
    Compression mode : Lossy
    Delay relative to video : -83 ms
    Stream size : 194 MiB (5%)
    Title : original AC3
    Language : English
    Service kind : Complete Main
    Default : No
    Forced : No

    Text #1
    ID : 3
    Format : UTF-8
    Codec ID : S_TEXT/UTF8
    Codec ID/Info : UTF-8 Plain Text
    Duration : 2 h 19 min
    Bit rate : 73 b/s
    Count of elements : 2097
    Stream size : 75.2 KiB (0%)
    Title : Eng
    Language : English
    Default : No
    Forced : No

    Text #2
    ID : 4
    Format : VobSub
    Muxing mode : zlib
    Codec ID : S_VOBSUB
    Codec ID/Info : Picture based subtitle format used on DVDs
    Duration : 2 h 15 min
    Bit rate : 3 086 b/s
    Count of elements : 1986
    Stream size : 3.00 MiB (0%)
    Title : Thai 480p
    Language : Thai
    Default : Yes
    Forced : Yes

    Text #3
    ID : 5
    Format : VobSub
    Muxing mode : zlib
    Codec ID : S_VOBSUB
    Codec ID/Info : Picture based subtitle format used on DVDs
    Duration : 2 h 15 min
    Bit rate : 7 081 b/s
    Count of elements : 1986
    Stream size : 6.88 MiB (0%)
    Title : Thai 1080p
    Language : Thai
    Default : No
    Forced : Yes

    Text #4
    ID : 6
    Format : PGS
    Muxing mode : zlib
    Codec ID : S_HDMV/PGS
    Codec ID/Info : Picture based subtitle format used on BDs/HD-DVDs
    Duration : 2 h 15 min
    Bit rate : 25.5 kb/s
    Count of elements : 3972
    Stream size : 24.8 MiB (1%)
    Title : Thai PGS
    Language : Thai

    Default : No
    Forced : Yes

    Text #5
    ID : 7
    Format : PGS
    Muxing mode : zlib
    Codec ID : S_HDMV/PGS
    Codec ID/Info : Picture based subtitle format used on BDs/HD-DVDs
    Duration : 2 h 15 min
    Bit rate : 25.6 kb/s
    Count of elements : 3972
    Stream size : 24.9 MiB (1%)
    Title : Thai PGS YELLOW
    Language : Thai
    Default : No
    Forced : Yes

    ***MODIFIED BY @ENTHD***




    1080p SPMini HD

    [email protected]
    Format : Matroska
    Format version : Version 4 / Version 2
    File size : 2.93 GiB
    Duration : 2 h 21 min
    Overall bit rate : 2 978 kb/s
    Movie name : [email protected]
    Encoded date : UTC 2018-08-23 10:49:08
    Writing application : mkvmerge v20.0.0 ('I Am The Sun') 64-bit
    Writing library : libebml v1.3.5 + libmatroska v1.4.8
    Cover : Yes
    Attachments : cover.jpg

    Video
    ID : 1
    Format : AVC
    Format/Info : Advanced Video Codec
    Format profile : [email protected]
    Format settings, CABAC : Yes
    Format settings, RefFrames : 4 frames
    Codec ID : V_MPEG4/ISO/AVC
    Duration : 2 h 21 min
    Bit rate : 2 500 kb/s
    Width : 1 920 pixels
    Height : 1 080 pixels

    Display aspect ratio : 16:9
    Frame rate mode : Constant
    Frame rate : 23.976 (24000/1001) FPS
    Original frame rate : 23.976 (23976/1000) FPS
    Color space : YUV
    Chroma subsampling : 4:2:0
    Bit depth : 8 bits
    Scan type : Progressive
    Bits/(Pixel*Frame) : 0.050
    Stream size : 2.46 GiB (84%)
    Title : @@[email protected]@
    Writing library : x264 core 148 r2597M e86f3a1
    Encoding settings : cabac=1 / ref=4 / deblock=1:-1:-1 / analyse=0x3:0x113 / me=umh / subme=9 / psy=1 / psy_rd=1.00:0.15 / mixed_ref=1 / me_range=24 / chroma_me=1 / trellis=2 / 8x8dct=1 / cqm=0 / deadzone=21,11 / fast_pskip=1 / chroma_qp_offset=-3 / threads=32 / lookahead_threads=4 / sliced_threads=0 / nr=0 / decimate=1 / interlaced=0 / bluray_compat=0 / constrained_intra=0 / bframes=3 / b_pyramid=2 / b_adapt=2 / b_bias=0 / direct=3 / weightb=1 / open_gop=0 / weightp=2 / keyint=250 / keyint_min=25 / scenecut=40 / intra_refresh=0 / rc_lookahead=50 / rc=2pass / mbtree=1 / bitrate=2500 / ratetol=1.0 / qcomp=0.60 / qpmin=0 / qpmax=69 / qpstep=4 / cplxblur=20.0 / qblur=0.5 / vbv_maxrate=31250 / vbv_bufsize=31250 / nal_hrd=none / filler=0 / ip_ratio=1.40 / aq=3:1.00
    Language : English
    Default : Yes
    Forced : No

    Audio #1
    ID : 2
    Format : AC-3
    Format/Info : Audio Coding 3
    Format settings, Endianness : Big
    Codec ID : A_AC3
    Duration : 2 h 21 min
    Bit rate mode : Constant
    Bit rate : 192 kb/s
    Channel(s) : 1 channel
    Channel positions : Front: C
    Sampling rate : 48.0 kHz
    Frame rate : 31.250 FPS (1536 SPF)
    Bit depth : 16 bits
    Compression mode : Lossy
    Stream size : 194 MiB (6%)
    Title : Eng AC3
    Language : English
    Service kind : Complete Main
    Default : No
    Forced : No

    Audio #2
    ID : 3
    Format : AAC
    Format/Info : Advanced Audio Codec
    Format profile : LC
    Codec ID : A_AAC
    Duration : 2 h 21 min
    Bit rate : 224 kb/s
    Channel(s) : 1 channel
    Channel positions : Front: C
    Sampling rate : 48.0 kHz
    Frame rate : 46.875 FPS (1024 SPF)
    Compression mode : Lossy
    Stream size : 226 MiB (8%)
    Title : Eng AAC
    Language : English
    Default : Yes
    Forced : No

    Text #1
    ID : 4
    Format : UTF-8
    Codec ID : S_TEXT/UTF8
    Codec ID/Info : UTF-8 Plain Text
    Duration : 2 h 19 min
    Bit rate : 73 b/s
    Count of elements : 2097
    Stream size : 75.1 KiB (0%)
    Title : Eng
    Language : English
    Default : No
    Forced : No

    Text #2
    ID : 5
    Format : VobSub
    Muxing mode : zlib
    Codec ID : S_VOBSUB
    Codec ID/Info : Picture based subtitle format used on DVDs
    Duration : 2 h 15 min
    Bit rate : 3 920 b/s
    Count of elements : 1986
    Stream size : 3.81 MiB (0%)
    Title : Thai 480p
    Language : Thai
    Default : No
    Forced : Yes

    Text #3
    ID : 6
    Format : VobSub
    Muxing mode : zlib
    Codec ID : S_VOBSUB
    Codec ID/Info : Picture based subtitle format used on DVDs
    Duration : 2 h 15 min
    Bit rate : 12.2 kb/s
    Count of elements : 1986
    Stream size : 11.9 MiB (0%)
    Title : Thai 1080p
    Language : Thai
    Default : No
    Forced : Yes

    Text #4
    ID : 7
    Format : PGS
    Muxing mode : zlib
    Codec ID : S_HDMV/PGS
    Codec ID/Info : Picture based subtitle format used on BDs/HD-DVDs
    Duration : 2 h 15 min
    Bit rate : 56.8 kb/s
    Count of elements : 3972
    Stream size : 55.2 MiB (2%)
    Title : Thai PGS
    Language : Thai

    Default : Yes
    Forced : Yes

    Text #5
    ID : 8
    Format : PGS
    Muxing mode : zlib
    Codec ID : S_HDMV/PGS
    Codec ID/Info : Picture based subtitle format used on BDs/HD-DVDs
    Duration : 2 h 15 min
    Bit rate : 56.8 kb/s
    Count of elements : 3972
    Stream size : 55.2 MiB (2%)
    Title : Thai PGS YELLOW
    Language : Thai
    Default : No
    Forced : Yes

    ***MODIFIED BY @ENTHD***




    John Wayne กับบทบาทนายอำเภอ จอห์น ที ชานส์ นายอำเภอของเมืองเล็ก ๆ ในรัฐเท็กซัส ที่ต้องปะทะกับเเก๊งโจรนอกกฎหมายที่มาช่วยเหลือพี่ชา ยที่อยู่ในคุก

    ---------------------------------------------------------------------------------------------------------------

    ***ข้อแนะนำในการโหลดไฟล์จากเว็บต่างๆ***

    ###ควรใช้ IDM ในการโหลด และควรตั้งค่าเริ่มต้นเชื่อมต่อ ตั้งแต่ 8 ขึ้นไป ส่วนในกรณีที่ IDM ไม่ขึ้นตอนกดโหลดให้ติดตั้งส่วนขยายของ IDM ในเบราว์เซอร์ที่ใช้ ##




    SPMiniHD

    http://cornfile.com/hshwm3brdcff

    MiniHD

    http://cornfile.com/ommii60xjg2d

    Full HD

    http://cornfile.com/sfn65e3x2s06


    >>สมัคร VIP cornfile <<

    >> วิธีสมัคร VIP cornfile <<




    SPMINI-HD

    1 PART

    DOWNLOAD


    ติดตามอัพเดตเรื่องอื่นๆได้ที่

    https://enthdclub.blogspot.com/

    https://enthdvipmovieclub.blogspot.com/
    แก้ไขครั้งล่าสุดโดย @@[email protected]@ : 01-27-2020 เมื่อ 07:40 AM

  2. The Following 2 Users Say Thank You to @@[email protected]@ For This Useful Post:

    ksurachai (12-22-2019), Tatum03 (12-22-2019)

  3. #2
    Senior Member
    สมัครเมื่อ
    Jul 2012
    โพสต์
    6,503
    Thanks
    0
    Thanked 0 Times in 0 Posts
    ขอบคุณมากจ้า

  4. #3
    Member รูปส่วนตัว ksurachai
    สมัครเมื่อ
    Nov 2019
    โพสต์
    78
    Thanks
    14
    Thanked 0 Times in 0 Posts
    ชอบโพสท่านมากๆครับ มีให้เลือกด้วย ขอบคุณมากๆครับ

  5. #4
    Senior Member
    สมัครเมื่อ
    Oct 2013
    ที่อยู่
    Thailand
    โพสต์
    1,237
    Thanks
    1,110
    Thanked 0 Times in 0 Posts
    ขอบคุณมาก

  6. #5
    Senior Member
    สมัครเมื่อ
    Jun 2014
    โพสต์
    2,638
    Thanks
    0
    Thanked 0 Times in 0 Posts
    ขอบคุณครับ

+ ตอบกลับกระทู้

ข้อมูลกระทู้

Users Browsing this Thread

ในขณะนี้มี 1 ท่านดูกระทู้อยู่. (0 สมาชิกและ 1 ผู้เยี่ยมชม)

     

ป้ายกำกับของกระทู้นี้

กฎการโพสต์ข้อความ

  • ท่าน ไม่สามารถ ตั้งกระทู้ใหม่ได้
  • ท่าน ไม่สามารถ ตอบกระทู้ได้
  • ท่าน ไม่สามารถ แนบไฟล์ได้
  • ท่าน ไม่สามารถ แก้ไขข้อความโพสต์ได้
  • BB code สถานะ เปิด
  • Smilies สถานะ เปิด
  • [IMG] สถานะ เปิด
  • HTML สถานะ ปิด