+ ตอบกลับกระทู้
สรุปผลการค้นหา 1 ถึง 5 จากทั้งหมด 5
  1. #1
    Administrators รูปส่วนตัว Duckload.us
    สมัครเมื่อ
    Dec 2010
    โพสต์
    133,266
    Thanks
    7
    Thanked 136,893 Times in 60,531 Posts

    Lightbulb [ฝรั่ง]-Penny Dreadful เรื่องเล่าเขย่าขวัญ Season 1 (Complete) EP.1-EP.8 END[1080p.BluRay.x264] พากย์ไทย ซับไทย-Encode.H.264.1080p. [Hi-def rip from Master]-[พากย์ไทย บรรยายไทย]

    Penny Dreadful



    Rating: 8.2/10 Year: 2014 Genres: Drama / Fantasy / Horror Runtime: 60 min Language: English Director: n/A Writers: John Logan / Andrew Hinderaker / Krysty Wilson-Cairns Cast: Reeve Carney / Timothy Dalton / Eva Greenโ€ฆ Plot:

    n/A

    General
    Unique ID : 207427802355372161746363442254447935895 (0x9C0D243EF1ED19FAAF53530300C48197)
    Complete name : E:Penny Dreadful เรื่องเล่าเขย่าขวัญPenny.Dreadful.S01.1080p.BluRay .x264-BSTBpenny.dreadful.s01e01.Night Work.1080p.bluray.x264-BSTB.mkv
    Format : Matroska
    Format version : Version 4 / Version 2
    File size : 4.01 GiB
    Duration : 53 min 1 s
    Overall bit rate : 10.8 Mb/s
    Encoded date : UTC 2018-11-04 07:43:33
    Writing application : mkvmerge v9.9.0 ( Pick Up ) 64bit
    Writing library : libebml v1.3.4 + libmatroska v1.4.5

    Video
    ID : 1
    Format : AVC
    Format/Info : Advanced Video Codec
    Format profile : [email protected]
    Format settings : CABAC / 4 Ref Frames
    Format settings, CABAC : Yes
    Format settings, ReFrames : 4 frames
    Codec ID : V_MPEG4/ISO/AVC
    Duration : 53 min 1 s
    Bit rate : 10.1 Mb/s
    Width : 1 920 pixels
    Height : 1 080 pixels
    Display aspect ratio : 16:9
    Frame rate mode : Constant
    Frame rate : 23.976 FPS
    Color space : YUV
    Chroma subsampling : 4:2:0
    Bit depth : 8 bits
    Scan type : Progressive
    Bits/(Pixel*Frame) : 0.203
    Stream size : 3.73 GiB (93%)
    Writing library : x264 core 142 r2479 dd79a61
    Encoding settings : cabac=1 / ref=4 / deblock=1:0:0 / analyse=0x3:0x133 / me=umh / subme=7 / psy=1 / psy_rd=1.00:0.00 / mixed_ref=1 / me_range=16 / chroma_me=1 / trellis=1 / 8x8dct=1 / cqm=0 / deadzone=21,11 / fast_pskip=0 / chroma_qp_offset=-2 / threads=18 / lookahead_threads=3 / sliced_threads=0 / nr=0 / decimate=1 / interlaced=0 / bluray_compat=0 / constrained_intra=0 / bframes=3 / b_pyramid=2 / b_adapt=1 / b_bias=0 / direct=1 / weightb=1 / open_gop=0 / weightp=2 / keyint=250 / keyint_min=23 / scenecut=40 / intra_refresh=0 / rc_lookahead=40 / rc=2pass / mbtree=1 / bitrate=10075 / ratetol=1.0 / qcomp=0.60 / qpmin=0 / qpmax=69 / qpstep=4 / cplxblur=20.0 / qblur=0.5 / ip_ratio=1.40 / aq=1:1.00
    Language : English
    Default : Yes
    Forced : No

    Audio #1
    ID : 2
    Format : AC-3
    Format/Info : Audio Coding 3
    Codec ID : A_AC3
    Duration : 53 min 1 s
    Bit rate mode : Constant
    Bit rate : 640 kb/s
    Channel(s) : 6 channels
    Channel positions : Front: L C R, Side: L R, LFE
    Sampling rate : 48.0 kHz
    Frame rate : 31.250 FPS (1536 SPF)
    Bit depth : 16 bits
    Compression mode : Lossy
    Stream size : 243 MiB (6%)
    Language : English
    Service kind : Complete Main
    Default : Yes
    Forced : No

    Audio #2
    ID : 4
    Format : AAC
    Format/Info : Advanced Audio Codec
    Format profile : LC
    Codec ID : A_AAC-2
    Duration : 53 min 0 s
    Bit rate : 96.0 kb/s
    Channel(s) : 2 channels
    Channel positions : Front: L R
    Sampling rate : 48.0 kHz
    Frame rate : 46.875 FPS (1024 SPF)
    Compression mode : Lossy
    Stream size : 36.4 MiB (1%)
    Language : Thai
    Default : No
    Forced : No

    Text
    ID : 3
    Format : VobSub
    Muxing mode : zlib
    Codec ID : S_VOBSUB
    Codec ID/Info : Picture based subtitle format used on DVDs
    Duration : 49 min 53 s
    Bit rate : 2 764 b/s
    Count of elements : 501
    Stream size : 1 010 KiB (0%)
    Language : Thai
    Default : Yes
    Forced : No

    Menu
    00:00:00.000 : en:00:00:00.000
    00:04:18.049 : en:00:04:18.049
    00:10:51.192 : en:00:10:51.192
    00:21:57.399 : en:00:21:57.399
    00:28:59.154 : en:00:28:59.154
    00:39:45.300 : en:00:39:45.300
    00:51:59.199 : en:00:51:59.199





    Penny.Dreadful.S01.1080p.BluRay.x264-BSTB.folder.tar
    http://www.filecondo.com/dl.php?f=sf28981GjXeo

  2. #2
    Senior Member
    สมัครเมื่อ
    Jul 2012
    โพสต์
    7,789
    Thanks
    0
    Thanked 0 Times in 0 Posts
    ขอบคุณมากจ้า

  3. #3
    Senior Member
    สมัครเมื่อ
    Dec 2011
    โพสต์
    2,637
    Thanks
    191
    Thanked 0 Times in 0 Posts
    ขอบคุณค่ะ ไฟล์สุดท้ายไม่มีเสียงไทยนะคะ แต่ก็มี Soundtrack + บรรยายไทย ค่ะ

  4. #4
    Senior Member
    สมัครเมื่อ
    Apr 2019
    โพสต์
    194
    Thanks
    0
    Thanked 0 Times in 0 Posts
    thanks naja

  5. #5
    Senior Member
    สมัครเมื่อ
    Jul 2013
    โพสต์
    2,886
    Thanks
    0
    Thanked 0 Times in 0 Posts
    ขอบคุณครับผม

+ ตอบกลับกระทู้

ข้อมูลกระทู้

Users Browsing this Thread

ในขณะนี้มี 1 ท่านดูกระทู้อยู่. (0 สมาชิกและ 1 ผู้เยี่ยมชม)

     

กฎการโพสต์ข้อความ

  • ท่าน ไม่สามารถ ตั้งกระทู้ใหม่ได้
  • ท่าน ไม่สามารถ ตอบกระทู้ได้
  • ท่าน ไม่สามารถ แนบไฟล์ได้
  • ท่าน ไม่สามารถ แก้ไขข้อความโพสต์ได้
  • BB code สถานะ เปิด
  • Smilies สถานะ เปิด
  • [IMG] สถานะ เปิด
  • HTML สถานะ ปิด