+ ตอบกลับกระทู้
สรุปผลการค้นหา 1 ถึง 1 จากทั้งหมด 1
  1. #1
    Administrators รูปส่วนตัว Duckload.us
    สมัครเมื่อ
    Dec 2010
    โพสต์
    129,665
    Thanks
    7
    Thanked 133,637 Times in 59,173 Posts

    Lightbulb [ญี่ปุ่น]-Darling in the Franxx ตอนที่ 1 - 24 [BDRip 1920x1080 x264 FLAC][พากย์ : ญี่ปุ่น][ซับ : ไทย(Otaku-FS)]

    DARLING in the FRANXX



    Rating: 7.3/10 Year: 2018 Genres: Animation / Action / Fantasy / Sci-Fi Runtime: 24 min Language: Japanese Director: n/A Writers: Joel Bergen / Naotaka Hayashi / Atsushi Nishigori Cast: Brittany Lauda / Matt Shipman / Bryn Apprillโ€ฆ Plot:

    The story is set in the distant future. The land is ruined, and humanity establishes the mobile fort city Plantation. Pilots produced inside Plantation live in Mistilteinn, also know as the "birdcage." Children live there knowing nothing of the outside world or the freedom of the sky. Their lives consist of battling to carry out missions. Their enemies are mysterious giant lifeforms known as Kyouryuu, and the children pilot robots called Franxx to face off against them. For the children, riding the Franxx proves their existence. Written by ANN

    ข้อมูล
    ชื่อเรื่อง : DARLING in the FRANXX
    ชื่ออื่นๆ : ダ ー リ ン ・ イ ン ・ ザ ・ フ ラ ン キ ス
    แนว : sci-fi / mecha หรือ หุ่นยนต์, โรแมนติก, บันเทิงคดีแนววิทยาศาสตร์
    ประเภท : Animation TV Series
    สตูดิโอผู้ผลิต : A1-Pictures , Trigger
    กำหนดฉาย : 13 มกราคม 2018

    DARLING in the FRANXX คืออภิมหาโปรเจ็คของ Aniplex ที่เปิดตัวไปในงาน Anime Expo 2017 ผลงานออริจินอลอนิเมะ ความร่วมมือกันระหว่าง 2 สตูดิโอดัง Trigger (Kill la Kill ,Little Witch Academia) และ A1 Pictures (Sword Art Online , Anohana , THE [email protected]) ในการสร้างสรรค์อนิเมะแนวหุ่นยนต์ล้ำจินตนาการ
    ด้านเพลงเปิดก็ได้ศิลปินชั้นนำอย่าง HYDE จาก L’Arc en Ciel มาเป็นคนแต่งและขับร้องโดย Mika Nakashima ในเพลงที่มีชื่อว่า “Kiss of Death”
    เรื่องย่อ
    เนื้อเรื่องกล่าวถึงอนาคตอันไกลโพ้น ผืนดินต่างๆถูกทำลาย มนุษย์ได้ย้ายไปอาศัยบนเมืองเคลื่อนที่ที่เรียกว่า Plantation เมืองนี้มีสถานที่ฝึกนักบินที่เรียกว่า Mistilteinn หรือ กรงนก เหล่าเด็กๆที่อยู่ที่นี้ไม่รู้จักหรือรับรู้ถึงโลกภา ยนอกและอิสระเสรี พวกเขาอยู่เพียงเพื่อทำภารกิจ นั่นคือการต่อสู้กับสิ่งมีชีวิตลึกลับ Kyoryu ด้วยหุ่นยนต์ยักษ์ที่เรียกว่า Franxx สำหรับพวกเขาแล้วการต่อสู้คือหลักฐานในการมีชีวิตอยู ่เด็กหนุ่มนาม Hiro หรือ Code:016 ครั้งหนึ่งเขาถูกเรียกว่าอัจฉริยะ แต่เขากลับไม่ได้รับเลือกให้ขับ Franxx เขาตามคนอื่นไม่ทัน และไร้ความสำคัญลง วันหนึ่งเด็กสาวปริศนาผู้มีเขา 2 ข้างบนหัว นาม Zero Two ก็มาปรากฏตัวต่อหน้าเขา แล้วทุกอย่างก็เริ่มขึ้น

    Video
    ID : 2
    Format : AVC
    Format/Info : Advanced Video Codec
    Format profile : High [email protected]
    Format settings, CABAC : Yes
    Format settings, RefFrames : 4 frames
    Codec ID : V_MPEG4/ISO/AVC
    Duration : 24 min 2 s
    Bit rate : 10.4 Mb/s
    Width : 1 920 pixels
    Height : 1 080 pixels
    Display aspect ratio : 16:9
    Frame rate mode : Constant
    Frame rate : 23.976 (24000/1001) FPS
    Color space : YUV
    Chroma subsampling : 4:2:0
    Bit depth : 10 bits
    Scan type : Progressive
    Bits/(Pixel*Frame) : 0.208
    Stream size : 1.74 GiB (88%)
    Title : Jensen & DJATOM & Horodep
    Writing library : x264 core 155 r2901M 7d0ff22 (DJATOM s mod)
    Encoding settings : cabac=1 / ref=4 / deblock=1:1:-1 / analyse=0x3:0x113 / me=umh / subme=9 / psy=1 / fade_compensate=0.00 / psy_rd=1.00:0.00 / mixed_ref=1 / me_range=32 / chroma_me=1 / trellis=2 / 8x8dct=1 / cqm=0 / deadzone=21,11 / fast_pskip=1 / chroma_qp_offset=-2 / threads=34 / lookahead_threads=5 / sliced_threads=0 / nr=0 / decimate=1 / interlaced=0 / bluray_compat=0 / constrained_intra=0 / bframes=9 / b_pyramid=2 / b_adapt=2 / b_bias=0 / direct=1 / weightb=1 / open_gop=0 / weightp=2 / keyint=240 / keyint_min=23 / scenecut=40 / intra_refresh=0 / rc=crf / mbtree=0 / crf=15.5000 / qcomp=0.72 / qpmin=0 / qpmax=81 / qpstep=4 / ip_ratio=1.40 / pb_ratio=1.30 / aq=1:0.85
    Language : Japanese
    Default : Yes
    Forced : No
    Color range : Limited
    Color primaries : BT.709
    Transfer characteristics : BT.709
    Matrix coefficients : BT.709

    Audio
    ID : 3
    Format : FLAC
    Format/Info : Free Lossless Audio Codec
    Codec ID : A_FLAC
    Duration : 24 min 2 s
    Bit rate mode : Variable
    Bit rate : 1 460 kb/s
    Channel(s) : 2 channels
    Channel positions : Front: L R
    Sampling rate : 48.0 kHz
    Frame rate : 11.719 FPS (4096 SPF)
    Bit depth : 24 bits
    Stream size : 251 MiB (12%)
    Writing library : libFLAC 1.3.2 (UTC 2017-01-01)
    Language : Japanese
    Default : Yes
    Forced : No

    Text
    ID : 1
    Format : ASS
    Codec ID : S_TEXT/ASS
    Codec ID/Info : Advanced Sub Station Alpha
    Duration : 23 min 55 s
    Bit rate : 184 b/s
    Count of elements : 325
    Compression mode : Lossless
    Stream size : 32.3 KiB (0%)
    Title : Subtitle By Otaku Fansub
    Language : Thai
    Default : Yes
    Forced : No

    Menu
    00:00:00.000 : :Avant
    00:01:48.025 : :Part A
    00:11:10.044 : :Part B
    00:22:17.962 : :ED



    เครดิตไฟล์ทั้งหมดมาจาก : Otaku-FS


    1
    http://www.filecondo.com/dl.php?f=n172bf1GJS4I
    2
    http://www.filecondo.com/dl.php?f=x4eff81GJS5H
    3
    http://www.filecondo.com/dl.php?f=52f6931GJS6G
    4
    http://www.filecondo.com/dl.php?f=i8da271GJS7F
    5
    http://www.filecondo.com/dl.php?f=Q36ce01GJS8B
    6
    http://www.filecondo.com/dl.php?f=W451d11GJS9z
    7
    http://www.filecondo.com/dl.php?f=c12db11GJSax
    8
    http://www.filecondo.com/dl.php?f=V736d71GJSbu
    9
    http://www.filecondo.com/dl.php?f=fa61d31GJSct
    10
    http://www.filecondo.com/dl.php?f=v23dfd1GJSdq
    11
    http://www.filecondo.com/dl.php?f=2ca9f01GJSeo
    12
    http://www.filecondo.com/dl.php?f=U292551GJSfo
    13
    http://www.filecondo.com/dl.php?f=Xf80ed1GJSgj
    14
    http://www.filecondo.com/dl.php?f=le55451GJShi
    15
    http://www.filecondo.com/dl.php?f=ifd3241GJSii
    16
    http://www.filecondo.com/dl.php?f=Ge17261GJSje
    17
    http://www.filecondo.com/dl.php?f=0301de1GJSkc
    18
    http://www.filecondo.com/dl.php?f=p1ffc21GJSla
    19
    http://www.filecondo.com/dl.php?f=a8f39c1GJSm8
    20
    http://www.filecondo.com/dl.php?f=O0270d1GJSn7
    21
    http://www.filecondo.com/dl.php?f=Y0e5d01GJSo6
    22
    http://www.filecondo.com/dl.php?f=Pcabd51GJSp1
    23
    http://www.filecondo.com/dl.php?f=l90b671GJSq1
    24
    http://www.filecondo.com/dl.php?f=Nf66a81GK1mS

  2. The Following User Says Thank You to Duckload.us For This Useful Post:

    JOMMY_2 (03-08-2019)

+ ตอบกลับกระทู้

ข้อมูลกระทู้

Users Browsing this Thread

ในขณะนี้มี 1 ท่านดูกระทู้อยู่. (0 สมาชิกและ 1 ผู้เยี่ยมชม)

     

กฎการโพสต์ข้อความ

  • ท่าน ไม่สามารถ ตั้งกระทู้ใหม่ได้
  • ท่าน ไม่สามารถ ตอบกระทู้ได้
  • ท่าน ไม่สามารถ แนบไฟล์ได้
  • ท่าน ไม่สามารถ แก้ไขข้อความโพสต์ได้
  • BB code สถานะ เปิด
  • Smilies สถานะ เปิด
  • [IMG] สถานะ เปิด
  • HTML สถานะ ปิด