+ ตอบกลับกระทู้
สรุปผลการค้นหา 1 ถึง 2 จากทั้งหมด 2
  1. #1
    Administrators รูปส่วนตัว Duckload.us
    สมัครเมื่อ
    Dec 2010
    โพสต์
    149,725
    Thanks
    7
    Thanked 156,688 Times in 68,430 Posts

    Question [ฝรั่ง]-Leap Year รักแท้แพ้ทางกิ๊ก 2010-Blu-ray.H.264.1080p. [Master]-[พากย์ไทย]

    Leap Year



    Rating: 6.5/10 Year: 2010 Genres: Comedy / Romance Runtime: 100 min Language: English / Ukrainian Director: Anand Tucker Writers: Deborah Kaplan / Harry Elfont Cast: Amy Adams / Matthew Goode / Adam Scottโ€ฆ Plot:

    A woman who has an elaborate scheme to propose to her boyfriend on Leap Day, an Irish tradition which occurs every time the date February 29 rolls around, faces a major setback when bad weather threatens to derail her planned trip to Dublin. With the help of an innkeeper, however, her cross-country odyssey just might result in her getting engaged. Written by Anonymous

    ภาพยนตร์โรแมนติคคอมิดี้เรื่องใหม่ของเอมี่ อดัมส์ และ แมทธิว กู้ดดี โดยเป็นเรื่องของหญิงสาวที่ต้องเดินทางไปดับลินในวัน ที่ 29 กุมภาพันธ์ เพื่อขอแฟนหนุ่มแต่งงาน ซึ่งเป็นการอาศัยธรรมเนียมเก่าแก่ของชาวไอริช แต่เหมือนชะตามาเล่นตลก เธอต้องเผชิญอุปสรรคนานาเพื่อที่จะเดินทางไปหาเขา และยังต้องเดินทางไปกับหนุ่มกักขฬะที่รับบทโดยแมทธิว กู้ดดีด้วย เธอและเขาทะเลาะกันไปตลอดทาง เจอเรื่องป่วนๆ ตลอดทาง ซึ่งอุปสรรคต่างๆก็ทำให้ชายหญิงแปลกหน้าคู่นี้เกิดตก หลุมรักกันขึ้นมา จะเลือกใครดีระหว่างชายหนุ่มคนรัก และ กิ๊กหนุ่มระหว่างทาง..

    Quote:
    General
    Leap Year 2010.mkv
    Format : Matroska
    Format version : Version 4 / Version 2
    File size : 8.34 GiB
    Duration : 1h 40mn
    Overall bit rate : 11.9 Mbps
    Movie name : Leap.Year.2010.1080p.BluRay.x264.DTS-FGT
    Encoded date : UTC 2018-08-10 13:11:22
    Writing application : mkvmerge v24.0.0 ( Beyond The Pale ) 64-bit
    Writing library : libebml v1.3.6 + libmatroska v1.4.9
    Cover : Yes
    Attachments : cover_land.jpg / small_cover.jpg / small_cover_land.jpg / cover.jpg
    Video
    ID : 1
    Format : AVC
    Format/Info : Advanced Video Codec
    Format profile : [email protected]
    Format settings : CABAC / 5 Ref Frames
    Format settings, CABAC : Yes
    Format settings, ReFrames : 5 frames
    Codec ID : V_MPEG4/ISO/AVC
    Duration : 1h 40mn
    Bit rate : 10 000 Kbps
    Width : 1 920 pixels
    Height : 800 pixels
    Display aspect ratio : 2.40:1
    Frame rate mode : Constant
    Frame rate : 23.976 (24000/1001) fps
    Color space : YUV
    Chroma subsampling : 4:2:0
    Bit depth : 8 bits
    Scan type : Progressive
    Bits/(Pixel*Frame) : 0.272
    Stream size : 7.00 GiB (84%)
    Writing library : x264 core 100 r1659 57b2e56
    Encoding settings : cabac=1 / ref=5 / deblock=1:-3:-3 / analyse=0x3:0x113 / me=umh / subme=10 / psy=1 / psy_rd=1.00:0.00 / mixed_ref=1 / me_range=64 / chroma_me=1 / trellis=2 / 8x8dct=1 / cqm=0 / deadzone=21,11 / fast_pskip=0 / chroma_qp_offset=-2 / threads=6 / sliced_threads=0 / nr=0 / decimate=1 / interlaced=0 / constrained_intra=0 / bframes=5 / b_pyramid=2 / b_adapt=2 / b_bias=0 / direct=3 / weightb=1 / open_gop=0 / weightp=2 / keyint=250 / keyint_min=25 / scenecut=40 / intra_refresh=0 / rc_lookahead=100 / rc=2pass / mbtree=1 / bitrate=10000 / ratetol=1.0 / qcomp=0.60 / qpmin=10 / qpmax=51 / qpstep=4 / cplxblur=20.0 / qblur=0.5 / ip_ratio=1.40 / aq=1:0.80
    Language : English
    Default : Yes
    Forced : No
    Audio #1
    ID : 2
    Format : DTS
    Format/Info : Digital Theater Systems
    Codec ID : A_DTS
    Duration : 1h 40mn
    Bit rate mode : Constant
    Bit rate : 1 509 Kbps
    Channel(s) : 6 channels
    Channel positions : Front: L C R, Side: L R, LFE
    Sampling rate : 48.0 KHz
    Frame rate : 93.750 fps (512 SPF)
    Bit depth : 24 bits
    Compression mode : Lossy
    Stream size : 1.06 GiB (13%)
    Language : English
    Default : No
    Forced : No
    Audio #2
    ID : 3
    Format : AC-3
    Format/Info : Audio Coding 3
    Codec ID : A_AC3
    Duration : 1h 40mn
    Bit rate mode : Constant
    Bit rate : 384 Kbps
    Channel(s) : 6 channels
    Channel positions : Front: L C R, Side: L R, LFE
    Sampling rate : 48.0 KHz
    Frame rate : 31.250 fps (1536 SPF)
    Bit depth : 16 bits
    Compression mode : Lossy
    Stream size : 275 MiB (3%)
    Title : Thai AC3 5.1 Ch 384 Kbps
    Language : Thai
    Service kind : Complete Main
    Default : Yes
    Forced : Yes
    Text #1
    ID : 4
    Format : VobSub
    Muxing mode : zlib
    Codec ID : S_VOBSUB
    Codec ID/Info : Picture based subtitle format used on DVDs
    Duration : 1h 35mn
    Bit rate : 6 649 bps
    Count of elements : 1173
    Stream size : 4.55 MiB (0%)
    Title : Thai 1080p
    Language : Thai
    Default : Yes
    Forced : Yes
    Text #2
    ID : 5
    Format : PGS
    Muxing mode : zlib
    Codec ID : S_HDMV/PGS
    Codec ID/Info : Picture based subtitle format used on BDs/HD-DVDs
    Duration : 1h 35mn
    Bit rate : 27.3 Kbps
    Count of elements : 2346
    Stream size : 18.7 MiB (0%)
    Title : Thai PGS
    Language : Thai
    Default : No
    Forced : No
    Text #3
    ID : 6
    Format : UTF-8
    Codec ID : S_TEXT/UTF8
    Codec ID/Info : UTF-8 Plain Text
    Duration : 1h 34mn
    Bit rate : 56 bps
    Count of elements : 1327
    Stream size : 39.2 KiB (0%)
    Title : English srt
    Language : English
    Default : No
    Forced : No




    Download: cornfile
    http://cornfile.com/9fiatit6h27g
    Download: mekafile
    http://www.filecondo.com/dl.php?f=Sn44b2bOXrnn

  2. #2
    Junior Member
    สมัครเมื่อ
    Jul 2023
    โพสต์
    4
    Thanks
    0
    Thanked 0 Times in 0 Posts
    โหลดไม่ได้แล้วอะครับ ขอใหม่ได้มั้ยครับ
    filecondo นะครับ

+ ตอบกลับกระทู้

ข้อมูลกระทู้

Users Browsing this Thread

ในขณะนี้มี 1 ท่านดูกระทู้อยู่. (0 สมาชิกและ 1 ผู้เยี่ยมชม)

     

กฎการโพสต์ข้อความ

  • ท่าน ไม่สามารถ ตั้งกระทู้ใหม่ได้
  • ท่าน ไม่สามารถ ตอบกระทู้ได้
  • ท่าน ไม่สามารถ แนบไฟล์ได้
  • ท่าน ไม่สามารถ แก้ไขข้อความโพสต์ได้
  • BB code สถานะ เปิด
  • Smilies สถานะ เปิด
  • [IMG] สถานะ เปิด
  • HTML สถานะ ปิด