+ ตอบกลับกระทู้
สรุปผลการค้นหา 1 ถึง 4 จากทั้งหมด 4
  1. #1
    Administrators รูปส่วนตัว Duckload.us
    สมัครเมื่อ
    Dec 2010
    โพสต์
    119,824
    Thanks
    7
    Thanked 125,273 Times in 56,031 Posts

    Lightbulb [เกาหลี]-•[Netflix]• The Moon That Embraces the Sun จันทราโอบอาทิตย์ [เสียงเกาหลี AC-3 2.0]-[บรรยายไทย + อังกฤษ]-[ซับไทย MASTER From Netflix]-WEB-DL.AC-3.1080p. [Master]-[Soundtrack บรรยายไทย]





    Haereul poomeun dal



    Rating: 8.1/10 Year: 2012 Genres: Drama / Fantasy / Romance Runtime: n/A Language: Korean Director: n/A Writers: Su-wan Jin / Eun Gwol Jung Cast: Mi-seon Jeon / Mi-kyeong Yang / Eung-soo Kimโ€ฆ Plot:

    The story of the secret love between Lee Hwon, a fictional king of Joseon, and Wol, a female shaman. Wol was born as Heo Yeon Woo, the daughter of a noble family who won the love of the crown prince, Hwon. Her enemies, jealous of her family's position in court, schemed against her, wrestled away her rightful place as crown princess, and nearly took her life. Years later, an embittered Hwon meets Wol, now a female shaman with no recollection of her past. Written by DramaWiki

    The Moon That Embraces The Sun เรื่องราวความรักโรแมนติกย้อนยุคของของพระเจ้า อีฮวอน (Kim Soo Hyun) ซึ่งได้ปลอมตัวเป็นสามัญชนเพื่อออกไปนอกวังกับองครัก ษ์ แต่เกิดไปติดฝน จึงเข้าไปหลบที่กระท่อมแห่งหนึ่ง และได้พบกับหญิงสาวงามคนนึง
    ไม่เพียงหญิงสาวคนนี้จะรูปงามเท่านั้น เธอกับมีวาทะที่เป็นเลิศทั้งกาพย์และกลอน พระองค์จึงประทานชื่อ ว่า วอล (Han Ga In) (ซึ่งแปลว่าพระจันทร์) บทสรุปความรักของทั้งคู่จะลงเอยอย่างไร? มาร่วมตามหาวอลและความรักของพระเจ้าอีฮวอนได้ใน ซีรี่ย์เกาหลี The Moon That Embraces The Sun



    File size : 3.51 GiB
    Duration : 1 h 12 min
    Overall bit rate mode : Variable
    Overall bit rate : 6 927 kb/s

    Video
    ID : 1
    Format : AVC
    Format/Info : Advanced Video Codec
    Format profile : [email protected]
    Format settings, CABAC : Yes
    Format settings, ReFrames : 3 frames
    Codec ID : V_MPEG4/ISO/AVC
    Duration : 1 h 12 min
    Bit rate mode : Variable
    Bit rate : 6 810 kb/s
    Maximum bit rate : 10.2 Mb/s
    Width : 1 920 pixels
    Height : 1 080 pixels
    Display aspect ratio : 16:9
    Frame rate mode : Constant
    Frame rate : 29.970 (30000/1001) FPS
    Color space : YUV
    Chroma subsampling : 4:2:0
    Bit depth : 8 bits
    Scan type : Progressive
    Bits/(Pixel*Frame) : 0.110
    Stream size : 3.38 GiB (96%)
    Writing library : x264 core 148 r2715 7e75228
    Encoding settings : cabac=1 / ref=3 / deblock=1:0:0 / analyse=0x1:0x111 / me=umh / subme=10 / psy=1 / psy_rd=1.00:0.00 / mixed_ref=1 / me_range=24 / chroma_me=1 / trellis=2 / 8x8dct=0 / cqm=0 / deadzone=21,11 / fast_pskip=1 / chroma_qp_offset=-2 / threads=8 / lookahead_threads=1 / sliced_threads=0 / nr=0 / decimate=1 / interlaced=0 / bluray_compat=0 / stitchable=1 / constrained_intra=0 / bframes=2 / b_pyramid=0 / b_adapt=2 / b_bias=0 / direct=3 / weightb=1 / open_gop=0 / weightp=2 / keyint=60 / keyint_min=31 / scenecut=0 / intra_refresh=0 / rc_lookahead=60 / rc=2pass / mbtree=1 / bitrate=6810 / ratetol=1.0 / qcomp=0.50 / qpmin=6 / qpmax=51 / qpstep=4 / cplxblur=20.0 / qblur=0.5 / vbv_maxrate=10215 / vbv_bufsize=13620 / nal_hrd=vbr / filler=0 / ip_ratio=1.40 / aq=1:1.00
    Default : Yes
    Forced : No
    DURATION : 01:12:35.985000000
    HANDLER_NAME : Video Media Handler

    Audio
    ID : 2
    Format : E-AC-3
    Format/Info : Enhanced Audio Coding 3
    Format settings, Endianness : Big
    Codec ID : A_EAC3
    Duration : 1 h 12 min
    Bit rate mode : Constant
    Bit rate : 128 kb/s
    Channel(s) : 2 channels
    Channel positions : Front: L R
    Sampling rate : 48.0 kHz
    Frame rate : 187.500 FPS (256 spf)
    Bit depth : 32 bits
    Compression mode : Lossy
    Stream size : 66.5 MiB (2%)
    Title : Korean [Original]
    Language : Korean
    Service kind : Complete Main
    Default : Yes
    Forced : No
    DURATION : 01:12:36.128000000
    HANDLER_NAME : Audio Media Handler

    Text #1
    ID : 3
    Format : UTF-8
    Codec ID : S_TEXT/UTF8
    Codec ID/Info : UTF-8 Plain Text
    Title : Off
    Language : Korean
    Default : No
    Forced : No
    DURATION : 01:12:24.406000000

    Text #2
    ID : 4
    Format : UTF-8
    Codec ID : S_TEXT/UTF8
    Codec ID/Info : UTF-8 Plain Text
    Title : English
    Language : English
    Default : No
    Forced : No
    DURATION : 01:12:35.951000000

    Text #3
    ID : 5
    Format : UTF-8
    Codec ID : S_TEXT/UTF8
    Codec ID/Info : UTF-8 Plain Text
    Title : Thai
    Language : Thai
    Default : No
    Forced : No
    DURATION : 01:12:35.551000000

    Text #4
    ID : 6
    Format : UTF-8
    Codec ID : S_TEXT/UTF8
    Codec ID/Info : UTF-8 Plain Text
    Title : Simplified Chinese
    Language : Chinese-Hans
    Default : No
    Forced : No
    DURATION : 01:12:35.951000000

    Text #5
    ID : 7
    Format : UTF-8
    Codec ID : S_TEXT/UTF8
    Codec ID/Info : UTF-8 Plain Text
    Title : Traditional Chinese
    Language : Chinese-Hant
    Default : No
    Forced : No
    DURATION : 01:12:35.951000000














    1
    http://www.filecondo.com/dl.php?f=e87f441KgCuZ fix
    2
    http://www.filecondo.com/dl.php?f=Za6e1a1GR19v
    3
    http://www.filecondo.com/dl.php?f=94b95a1KgCwX fix
    4
    http://www.filecondo.com/dl.php?f=R0e81d1GR1dj
    5
    http://www.filecondo.com/dl.php?f=n602301GR1eh
    6
    http://www.filecondo.com/dl.php?f=zb25eb1GR1gf
    7
    http://www.filecondo.com/dl.php?f=Re8a381GR1i9
    8
    http://www.filecondo.com/dl.php?f=ke645b1KgCxO fix
    9
    http://www.filecondo.com/dl.php?f=d6148b1KgCyQ fix
    10
    http://www.filecondo.com/dl.php?f=T112321GR1nW
    11
    http://www.filecondo.com/dl.php?f=Lbd6df1GR1oW
    12
    http://www.filecondo.com/dl.php?f=b444e51KgCzM fix
    13
    http://www.filecondo.com/dl.php?f=Yd6fc01GR1rQ
    14
    http://www.filecondo.com/dl.php?f=jfbb121KgCAN fix
    15
    http://www.filecondo.com/dl.php?f=Ga97171GR1tH
    16
    http://www.filecondo.com/dl.php?f=o28f0c1KgCBH fix
    17
    http://www.filecondo.com/dl.php?f=9448d91KgCCG fix
    18
    http://www.filecondo.com/dl.php?f=e37bfa1KgCDF fix
    19
    http://www.filecondo.com/dl.php?f=u699261GR1Hl
    20
    http://www.filecondo.com/dl.php?f=N842171GR1Ik

  2. The Following User Says Thank You to Duckload.us For This Useful Post:

    mahns8f2u (07-17-2019)

  3. #2
    Junior Member
    สมัครเมื่อ
    Sep 2020
    โพสต์
    6
    Thanks
    0
    Thanked 0 Times in 0 Posts
    ไฟล์ตอนที่ 1 , 3 , 8 ,9 , 12 , 14 , 16 , 17 , 18 (9 ตอน) โหลดไม่ได้ค่ะ รบกวนแก้ให้หน่อยนะคะ

  4. #3
    Administrators รูปส่วนตัว Duckload.us
    สมัครเมื่อ
    Dec 2010
    โพสต์
    119,824
    Thanks
    7
    Thanked 125,273 Times in 56,031 Posts
    อ้างอิง โพสต์ต้นฉบับโดยคุณ PunchSweet ดูโพสต์
    ไฟล์ตอนที่ 1 , 3 , 8 ,9 , 12 , 14 , 16 , 17 , 18 (9 ตอน) โหลดไม่ได้ค่ะ รบกวนแก้ให้หน่อยนะคะ
    เรียนแจ้ง แก้ไขแล้วครับ

  5. #4
    Senior Member
    สมัครเมื่อ
    May 2012
    โพสต์
    681
    Thanks
    0
    Thanked 0 Times in 0 Posts
    ขอบคุณครับ

+ ตอบกลับกระทู้

ข้อมูลกระทู้

Users Browsing this Thread

ในขณะนี้มี 1 ท่านดูกระทู้อยู่. (0 สมาชิกและ 1 ผู้เยี่ยมชม)

     

กฎการโพสต์ข้อความ

  • ท่าน ไม่สามารถ ตั้งกระทู้ใหม่ได้
  • ท่าน ไม่สามารถ ตอบกระทู้ได้
  • ท่าน ไม่สามารถ แนบไฟล์ได้
  • ท่าน ไม่สามารถ แก้ไขข้อความโพสต์ได้
  • BB code สถานะ เปิด
  • Smilies สถานะ เปิด
  • [IMG] สถานะ เปิด
  • HTML สถานะ ปิด