+ ตอบกลับกระทู้
สรุปผลการค้นหา 1 ถึง 2 จากทั้งหมด 2
  1. #1
    Administrators รูปส่วนตัว Duckload.us
    สมัครเมื่อ
    Dec 2010
    โพสต์
    118,648
    Thanks
    7
    Thanked 124,653 Times in 55,802 Posts

    Lightbulb [เกาหลี]-•[Netflix]• Brilliant Legacy / Shining Inheritance มรดกรักฉบับพันล้านวอน [เสียงเกาหลี]-[บรรยายไทย + อังกฤษ]-[ซับไทย MASTER From Netflix]-[Soundtrack บรรยายไทย]-WEB-DL.H.264.1080p.





    โกอุนซอง หญิงสาวรูปงามใสซื่อบริสุทธิ์ เนื่องจากแม่ของเธอป่วยหนักจนเสียชีวิตไป ทำให้เธอต้องใช้ชีวิตอยู่กับพ่อและน้องชายซึ่งเป็นโร คออทิสติก เมื่อครั้งที่เธอเรียนมัธยมปลาย พ่อของเธอแต่งงานใหม่ นับแต่นั้นเป็นต้นมา เธอก็มียูซึงมีเป็นน้องสาวซึ่งไม่มีสัมพันธ์ทางสายเล ือดแต่อย่างใด ส่วนปั๊กเซ็งฮีซึ่งเป็นแม่เลี้ยงนั้นเป็นสาวสังคม ภายนอกทำเป็นรักและห่วงใยอุนซองและน้องชาย แต่ความเป็นจริงแล้วกลับเป็นผู้หญิงที่เห็นแก่เงิน

    บริษัทออกแบบของพ่อของอุนซองประสบปัญหาทางธุรกิจ ธนาคารปฏิเสธให้การสนับสนุนทางการเงินอีกต่อไป พ่อไปยืมเงินจากเพื่อนเพื่อนำมาใช้หมุนเวียนในบริษัท แต่นึกไม่ถึงว่าระหว่างทางกลับบ้านถูกโจรปล้นทรัพย์ส ินไปจนหมด หลังจากที่พ่อฟื้นได้สติขึ้นมาก็พบข่าวการเสียชีวิตข องตนจากโทรทัศน์ของร้านค้าแห่งหนึ่ง ที่แท้โจรที่ปล้นทรัพย์สินของพ่อไปนั้น ได้พากันไปร้องคาราโอเกะ แต่กลับโชคร้ายถูกไฟครอกตายภายในร้านคาราโอเกะ แม่เลี้ยงของอุนซองได้รับการติดต่อจากตำรวจให้ไปยืนย ันผู้ตาย จากนาฬิกาข้อมือและแหวนซึ่งสวมใส่อยู่ที่มือของโจร ทำให้แม่เลี้ยงยืนยันว่าผู้ตายเป็นสามีของเธอ

    แม่เลี้ยงจำได้ว่าพ่อของอุนซองทำประกันชีวิตไว้ด้วยม ูลค่าสูง หลังจากที่แม่เลี้ยงได้รับเงินจากบริษัทประกันชีวิตแ ล้ว ก็ขับไล่อุนซองและอุนยูสองพี่น้องออกจากบ้าน .......... แต่แล้วโอกาสก็อำนวยให้อุนซอง เธอได้ช่วยชีวิตจังซุกจาประธานบริษัทอาหารจินเซ็งเอา ไว้ ด้วยเหตุนี้เองจึงทำให้เธอได้เข้าทำงานที่บริษัทอาหา รจินเซ็ง ด้วยความขยันขันแข็งมุมานะของเธอ ทำให้เธอประสบความสำเร็จในหน้าที่การงาน ทั้งยังได้ประสบพบรักกับซังยูฮังหลานของจังซุกจาอีกด ้วย

    Format : Matroska
    Format version : Version 4 / Version 2
    File size : 3.31 GiB
    Duration : 1 h 2 min
    Overall bit rate mode : Variable
    Overall bit rate : 7 612 kb/s

    Video
    ID : 1
    Format : AVC
    Format/Info : Advanced Video Codec
    Format profile : [email protected]
    Format settings, CABAC : Yes
    Format settings, ReFrames : 3 frames
    Codec ID : V_MPEG4/ISO/AVC
    Duration : 1 h 2 min
    Bit rate mode : Variable
    Bit rate : 7 500 kb/s
    Maximum bit rate : 11.2 Mb/s
    Width : 1 920 pixels
    Height : 1 080 pixels
    Display aspect ratio : 16:9
    Frame rate mode : Constant
    Frame rate : 29.970 (30000/1001) FPS
    Color space : YUV
    Chroma subsampling : 4:2:0
    Bit depth : 8 bits
    Scan type : Progressive
    Bits/(Pixel*Frame) : 0.121
    Stream size : 3.19 GiB (96%)
    Writing library : x264 core 148 r2715 7e75228
    Encoding settings : cabac=1 / ref=3 / deblock=1:0:0 / analyse=0x1:0x111 / me=umh / subme=10 / psy=1 / psy_rd=1.00:0.00 / mixed_ref=1 / me_range=24 / chroma_me=1 / trellis=2 / 8x8dct=0 / cqm=0 / deadzone=21,11 / fast_pskip=1 / chroma_qp_offset=-2 / threads=8 / lookahead_threads=1 / sliced_threads=0 / nr=0 / decimate=1 / interlaced=0 / bluray_compat=0 / stitchable=1 / constrained_intra=0 / bframes=2 / b_pyramid=0 / b_adapt=2 / b_bias=0 / direct=3 / weightb=1 / open_gop=0 / weightp=2 / keyint=60 / keyint_min=31 / scenecut=0 / intra_refresh=0 / rc_lookahead=60 / rc=2pass / mbtree=1 / bitrate=7500 / ratetol=1.0 / qcomp=0.50 / qpmin=6 / qpmax=51 / qpstep=4 / cplxblur=20.0 / qblur=0.5 / vbv_maxrate=11250 / vbv_bufsize=15000 / nal_hrd=vbr / filler=0 / ip_ratio=1.40 / aq=1:1.00
    Default : Yes
    Forced : No
    DURATION : 01:02:14.797000000
    HANDLER_NAME : Video Media Handler

    Audio
    ID : 2
    Format : E-AC-3
    Format/Info : Enhanced Audio Coding 3
    Format settings, Endianness : Big
    Codec ID : A_EAC3
    Duration : 1 h 2 min
    Bit rate mode : Constant
    Bit rate : 128 kb/s
    Channel(s) : 2 channels
    Channel positions : Front: L R
    Sampling rate : 48.0 kHz
    Frame rate : 187.500 FPS (256 spf)
    Bit depth : 32 bits
    Compression mode : Lossy
    Stream size : 57.0 MiB (2%)
    Title : &38889 &25991 [&21407 &22987 ] [2.0]
    Language : Korean
    Service kind : Complete Main
    Default : Yes
    Forced : No
    DURATION : 01:02:15.072000000
    HANDLER_NAME : Audio Media Handler

    Text 1
    ID : 3
    Format : UTF-8
    Codec ID : S_TEXT/UTF8
    Codec ID/Info : UTF-8 Plain Text
    Title : &31616 &20307 &20013 &25991
    Language : Chinese-Hans
    Default : No
    Forced : No
    DURATION : 01:02:14.630000000

    Text 2
    ID : 4
    Format : UTF-8
    Codec ID : S_TEXT/UTF8
    Codec ID/Info : UTF-8 Plain Text
    Title : &33521 &35821
    Language : English
    Default : No
    Forced : No
    DURATION : 01:02:14.864000000

    Text 3
    ID : 5
    Format : UTF-8
    Codec ID : S_TEXT/UTF8
    Codec ID/Info : UTF-8 Plain Text
    Title : &38463 &25289 &20271 &35821
    Language : Arabic
    Default : No
    Forced : No
    DURATION : 01:02:14.864000000

    Text 4
    ID : 6
    Format : UTF-8
    Codec ID : S_TEXT/UTF8
    Codec ID/Info : UTF-8 Plain Text
    Title : &27888 &35821
    Language : Thai
    Default : No
    Forced : No
    DURATION : 01:02:14.831000000

    Text 5
    ID : 7
    Format : UTF-8
    Codec ID : S_TEXT/UTF8
    Codec ID/Info : UTF-8 Plain Text
    Title : &27861 &35821
    Language : French
    Default : No
    Forced : No
    DURATION : 01:02:14.764000000

    Text 6
    ID : 8
    Format : UTF-8
    Codec ID : S_TEXT/UTF8
    Codec ID/Info : UTF-8 Plain Text
    Title : &32321 &20307 &20013 &25991
    Language : Chinese-Hant
    Default : No
    Forced : No
    DURATION : 01:02:14.864000000

    Text 7
    ID : 9
    Format : UTF-8
    Codec ID : S_TEXT/UTF8
    Codec ID/Info : UTF-8 Plain Text
    Title : &22303 &32819 &20854 &25991
    Language : Turkish
    Default : No
    Forced : No
    DURATION : 01:02:14.831000000











    Brilliant.Legacy.S01.1080p.NF.WEB-DL.DDP2.0.x264-AleXa.folder.tar
    http://www.filecondo.com/dl.php?f=9d44d71IT5aw fix

  2. The Following User Says Thank You to Duckload.us For This Useful Post:

    mahns8f2u (07-17-2019)

  3. #2
    Junior Member
    สมัครเมื่อ
    Apr 2015
    โพสต์
    7
    Thanks
    0
    Thanked 0 Times in 0 Posts
    3 4 8 10 14 15 17 22
    โหลดไม่ได้แล้วครับ
    ช่วยแก้ไขด้วยครับ

+ ตอบกลับกระทู้

ข้อมูลกระทู้

Users Browsing this Thread

ในขณะนี้มี 1 ท่านดูกระทู้อยู่. (0 สมาชิกและ 1 ผู้เยี่ยมชม)

     

กฎการโพสต์ข้อความ

  • ท่าน ไม่สามารถ ตั้งกระทู้ใหม่ได้
  • ท่าน ไม่สามารถ ตอบกระทู้ได้
  • ท่าน ไม่สามารถ แนบไฟล์ได้
  • ท่าน ไม่สามารถ แก้ไขข้อความโพสต์ได้
  • BB code สถานะ เปิด
  • Smilies สถานะ เปิด
  • [IMG] สถานะ เปิด
  • HTML สถานะ ปิด