+ ตอบกลับกระทู้
สรุปผลการค้นหา 1 ถึง 3 จากทั้งหมด 3
  1. #1
    Administrators รูปส่วนตัว Duckload.us
    สมัครเมื่อ
    Dec 2010
    โพสต์
    133,332
    Thanks
    7
    Thanked 136,983 Times in 60,561 Posts

    Lightbulb [เกาหลี]-•[Netflix]• Fated to Love You ชะตารักสะดุดเลิฟ [เสียงเกาหลี]-[บรรยายไทย + อังกฤษ]-[ซับไทย MASTER From Netflix]-[Soundtrack บรรยายไทย]-WEB-DL.H.264.1080p.





    เรื่องราวความรักที่เกิดขึ้นแบบไม่ได้ตั้งใจเมื่อ คิมมิยอง (รับบทโดย จางนารา) สาวออฟฟิศสุดแสนจะธรรมดาทั้งหน้าตาและการศึกษา เป็นคนไม่กล้าปฏิเสธคำขอจากคนอื่น เธอจึงกลายเป็นเบ๊สาธารณะให้กับทุกคนในที่ทำงาน วันหนึ่งเธอได้รางวัลจากการจับฉลากเป็นแพคเก็จทัวร์ไ ปเที่ยวมาเก๊าฟรี และนั่นคือจุดเริ่มต้นที่ทำให้เธอได้พบกับ อีกอน (รับบทโดย จางฮยอก) ทายาทบริษัทยักษ์ใหญ่ในเกาหลีที่ไปเที่ยวที่เดียวกัน เพื่อวางแผนขอแฟนสาว คังเซรา (รับบทโดย วังจีวอน) แต่งงาน โชคชะตาก็เหมือนเล่นตลกเมื่อ คิมมิยอง และ อีกอน ได้เสียกันเพราะฤทธิ์น้ำเมาจนเป็นเหตุทำให้ คิมมิยอง ตั้งครรภ์ในเวลาต่อมา แล้วไหนจะหนุ่มหล่อดีไซน์เดอร์ชื่อดัง แดเนียล (รับบทโดย ชเวจินฮยอก) ที่ตกหลุมรักในความแบ๊วแสนซื่อของ คิมมิยอง เข้าอีกคน ความวุ่นวายต่าง ๆ จึงเกิดขึ้นตามมาอีกมากมาย

    Format : Matroska
    Format version : Version 4 / Version 2
    File size : 2.52 GiB
    Duration : 1 h 0 min
    Overall bit rate mode : Variable
    Overall bit rate : 5 918 kb/s

    Video
    ID : 1
    Format : AVC
    Format/Info : Advanced Video Codec
    Format profile : [email protected]
    Format settings, CABAC : Yes
    Format settings, ReFrames : 3 frames
    Codec ID : V_MPEG4/ISO/AVC
    Duration : 1 h 0 min
    Bit rate mode : Variable
    Bit rate : 5 800 kb/s
    Maximum bit rate : 8 700 kb/s
    Width : 1 920 pixels
    Height : 1 080 pixels
    Display aspect ratio : 16:9
    Frame rate mode : Constant
    Frame rate : 29.970 (30000/1001) FPS
    Color space : YUV
    Chroma subsampling : 4:2:0
    Bit depth : 8 bits
    Scan type : Progressive
    Bits/(Pixel*Frame) : 0.093
    Stream size : 2.41 GiB (96%)
    Writing library : x264 core 148 r2715 7e75228
    Encoding settings : cabac=1 / ref=3 / deblock=1:0:0 / analyse=0x1:0x111 / me=umh / subme=10 / psy=1 / psy_rd=1.00:0.00 / mixed_ref=1 / me_range=24 / chroma_me=1 / trellis=2 / 8x8dct=0 / cqm=0 / deadzone=21,11 / fast_pskip=1 / chroma_qp_offset=-2 / threads=8 / lookahead_threads=1 / sliced_threads=0 / nr=0 / decimate=1 / interlaced=0 / bluray_compat=0 / stitchable=1 / constrained_intra=0 / bframes=2 / b_pyramid=0 / b_adapt=2 / b_bias=0 / direct=3 / weightb=1 / open_gop=0 / weightp=2 / keyint=60 / keyint_min=31 / scenecut=0 / intra_refresh=0 / rc_lookahead=60 / rc=2pass / mbtree=1 / bitrate=5800 / ratetol=1.0 / qcomp=0.50 / qpmin=6 / qpmax=51 / qpstep=4 / cplxblur=20.0 / qblur=0.5 / vbv_maxrate=8700 / vbv_bufsize=11600 / nal_hrd=vbr / filler=0 / ip_ratio=1.40 / aq=1:1.00
    Default : Yes
    Forced : No
    DURATION : 01:00:51.581000000
    HANDLER_NAME : Video Media Handler

    Audio
    ID : 2
    Format : E-AC-3
    Format/Info : Enhanced Audio Coding 3
    Format settings, Endianness : Big
    Codec ID : A_EAC3
    Duration : 1 h 0 min
    Bit rate mode : Constant
    Bit rate : 128 kb/s
    Channel(s) : 2 channels
    Channel positions : Front: L R
    Sampling rate : 48.0 kHz
    Frame rate : 187.500 FPS (256 spf)
    Bit depth : 32 bits
    Compression mode : Lossy
    Stream size : 55.7 MiB (2%)
    Title : Korean [Original]
    Language : Korean
    Service kind : Complete Main
    Default : Yes
    Forced : No
    DURATION : 01:00:52.128000000
    HANDLER_NAME : Audio Media Handler

    Text 1
    ID : 3
    Format : UTF-8
    Codec ID : S_TEXT/UTF8
    Codec ID/Info : UTF-8 Plain Text
    Title : Arabic
    Language : Arabic
    Default : No
    Forced : No
    DURATION : 01:00:51.314000000

    Text 2
    ID : 4
    Format : UTF-8
    Codec ID : S_TEXT/UTF8
    Codec ID/Info : UTF-8 Plain Text
    Title : English
    Language : English
    Default : No
    Forced : No
    DURATION : 01:00:51.314000000

    Text 3
    ID : 5
    Format : UTF-8
    Codec ID : S_TEXT/UTF8
    Codec ID/Info : UTF-8 Plain Text
    Title : French
    Language : French
    Default : No
    Forced : No
    DURATION : 01:00:51.314000000

    Text 4
    ID : 6
    Format : UTF-8
    Codec ID : S_TEXT/UTF8
    Codec ID/Info : UTF-8 Plain Text
    Title : Indonesian
    Language : Indonesian
    Default : No
    Forced : No
    DURATION : 01:00:51.314000000

    Text 5
    ID : 7
    Format : UTF-8
    Codec ID : S_TEXT/UTF8
    Codec ID/Info : UTF-8 Plain Text
    Title : Thai
    Language : Thai
    Default : No
    Forced : No
    DURATION : 01:00:51.314000000

    Text 6
    ID : 8
    Format : UTF-8
    Codec ID : S_TEXT/UTF8
    Codec ID/Info : UTF-8 Plain Text
    Title : Turkish
    Language : Turkish
    Default : No
    Forced : No
    DURATION : 01:00:51.314000000

    Text 7
    ID : 9
    Format : UTF-8
    Codec ID : S_TEXT/UTF8
    Codec ID/Info : UTF-8 Plain Text
    Title : Simplified Chinese
    Language : Chinese-Hans
    Default : No
    Forced : No
    DURATION : 01:00:51.314000000

    Text 8
    ID : 10
    Format : UTF-8
    Codec ID : S_TEXT/UTF8
    Codec ID/Info : UTF-8 Plain Text
    Title : Traditional Chinese
    Language : Chinese-Hant
    Default : No
    Forced : No
    DURATION : 01:00:51.314000000













    1
    http://www.filecondo.com/dl.php?f=xfe30a1H7GLZ
    2
    http://www.filecondo.com/dl.php?f=E8adce1H7GMY
    3
    http://www.filecondo.com/dl.php?f=03861c1H7GNX
    4
    http://www.filecondo.com/dl.php?f=M87da31H7GOS
    5
    http://www.filecondo.com/dl.php?f=L084de1H7GPS
    6
    http://www.filecondo.com/dl.php?f=g3ac7c1H7GQP
    7
    http://www.filecondo.com/dl.php?f=Xdc6991H7GRP
    8
    http://www.filecondo.com/dl.php?f=G2aa391H7GSK
    9
    http://www.filecondo.com/dl.php?f=Y859221H7GTE
    10
    http://www.filecondo.com/dl.php?f=pd4f211H7GUK
    11
    http://www.filecondo.com/dl.php?f=G942d91H7GVA
    12
    http://www.filecondo.com/dl.php?f=neff621H7GWy
    13
    http://www.filecondo.com/dl.php?f=L9aa691H7GXE
    14
    http://www.filecondo.com/dl.php?f=i93f921H7GYC
    15
    http://www.filecondo.com/dl.php?f=Nbd37a1H7GZB
    16
    http://www.filecondo.com/dl.php?f=y42f191H7H0z
    17
    http://www.filecondo.com/dl.php?f=46f1dc1H7H1x
    18
    http://www.filecondo.com/dl.php?f=T198de1H7H2v
    19
    http://www.filecondo.com/dl.php?f=8021b81H7H4q
    20
    http://www.filecondo.com/dl.php?f=z1c24d1H7H6m

  2. The Following User Says Thank You to Duckload.us For This Useful Post:

    mahns8f2u (07-06-2019)

  3. #2
    Member
    สมัครเมื่อ
    Jun 2012
    โพสต์
    37
    Thanks
    0
    Thanked 0 Times in 0 Posts
    โหลดไม่ได้แล้ว

  4. #3
    Junior Member
    สมัครเมื่อ
    Oct 2018
    โพสต์
    17
    Thanks
    0
    Thanked 0 Times in 0 Posts
    โหลดไม่ได้ค่ะ

+ ตอบกลับกระทู้

ข้อมูลกระทู้

Users Browsing this Thread

ในขณะนี้มี 1 ท่านดูกระทู้อยู่. (0 สมาชิกและ 1 ผู้เยี่ยมชม)

     

กฎการโพสต์ข้อความ

  • ท่าน ไม่สามารถ ตั้งกระทู้ใหม่ได้
  • ท่าน ไม่สามารถ ตอบกระทู้ได้
  • ท่าน ไม่สามารถ แนบไฟล์ได้
  • ท่าน ไม่สามารถ แก้ไขข้อความโพสต์ได้
  • BB code สถานะ เปิด
  • Smilies สถานะ เปิด
  • [IMG] สถานะ เปิด
  • HTML สถานะ ปิด