+ ตอบกลับกระทู้
สรุปผลการค้นหา 1 ถึง 3 จากทั้งหมด 3
  1. #1
    Administrators รูปส่วนตัว Duckload.us
    สมัครเมื่อ
    Dec 2010
    โพสต์
    110,001
    Thanks
    7
    Thanked 115,451 Times in 52,796 Posts

    Question [ฝรั่ง]-[m-HD] Captain America Trilogy 2011-2016 BluRay 1080p AC3 x264-CtHts [กัปตันอเมริกา ไตรภาค] [เสียงไทยและบรรยายไทย บลูเรย์มาสเตอร์]-Encode.H.264.1080p. [Modified]-[พากย์ไทย บรรยายไทย]






    Captain America: The First Avenger - กัปตันอเมริกา อเวนเจอร์ที่ 1

    ประเภท/Type :
    Action/Adventure
    Sci-Fi/Fantasy
    Thriller

    สร้างโดย/Studio : Paramount

    รายละเอียดเรื่องย่อ/Synopsis
    Steve Rogers เด็กชายขี้โรคที่เติบโตขึ้นมาในช่วงสภาวะเศรษฐกิจตกต ่ำ ช่วงสงครามโลกครั้งที่ 2 ด้วยความที่มีฐานะยากจน และร่างกายที่อ่อนแอ ทำให้เขาต้องต่อสู้ชีวิตอย่างยากลำบาก และเมื่อสงครามโลกขยายขอบเขตมาถึงอเมริกา เขาสมัครเข้าเป็นทหารเพื่อรับใช้ชาติ แต่เนื่องด้วยสภาพร่างกายที่อ่อนแอ เขาถูกปฏิเสฐจากทางกองทัพ แต่ความมุ่งมั่นของโรเจอร์ ไปเข้าตานายพลเชสเตอร์ ฟิลิป

    นายพลเชสเตอร์ ชวนโรเจอร์ มาเข้าร่วมโครงการลับ Operation Rebirth โปรเจ็คที่ทดลองเกี่ยวกับการสร้างสุดยอดทหารด้วย Super Soldier Serum ทำให้โรเจอร์กลายเป็นสุดยอดทหาร ที่มีใจรักชาติเต็มเปี่ยม และถูกส่งไปร่วมรบที่สมรภูมิที่ยุโรป ต่อต้านกองทัพของฮิตเลอร์

    เขาถูกเด็กวัยรุ่นคนหนึ่งรู้ถึงตัวตนที่แท้จริง เด็กคนนั้น คือ Bucky Barnes ซึ่งภายหลังโรเจอร์ได้รับเขาเป็นคู่หู ระหว่าง การรบกับ Baron Heinrich Zemo ทำให้ Bucky หายสาบสูญ ส่วนตัวโรเจอร์ตกลงในมหาสมุทร Arctic ทำให้ร่างกายของเขาถูกแช่แข็งมาตลอดห้าสิบปี ก่อนที่จะถูกต้นพบโดยเหล่า Avengers ตื่นขึ้นสู่ยุคปัจจุบัน !!!

    นักแสดง/Actors :
    - Chris Evans
    - Tommy Lee Jones
    - Hugo Weaving
    - Hayley Atwell
    - Sebastian Stan

    ผู้กำกับ/Directors :
    - Joe Johnston


    *ดู INFO Report คลิ๊ก!*
    General
    Unique ID : 236912418217799869503999111421306026703 (0xB23BAC0B1822C4E6AFA5265C8F973ACF)
    Complete name : H:[m-HD] Captain America Trilogy 2011-2016 BluRay 1080p AC3 x264-CtHtsCaptain America The First Avenger 2011 BluRay 1080p AC3 x264-CtHts.mkv
    Format : Matroska
    Format version : Version 4
    File size : 3.75 GiB
    Duration : 2 h 4 min
    Overall bit rate : 4 319 kb/s
    Movie name : Captain America The First Avenger 2011 BluRay 1080p AC3 x264-CtHts
    Encoded date : UTC 2019-04-01 08:16:39
    Writing application : mkvmerge v6.9.1 ('Blue Panther') 32bit built on Apr 18 2014 18:15:44
    Writing library : libebml v1.3.0 + libmatroska v1.4.1

    Video
    ID : 1
    Format : AVC
    Format/Info : Advanced Video Codec
    Format profile : [email protected]
    Format settings : CABAC / 5 Ref Frames
    Format settings, CABAC : Yes
    Format settings, RefFrames : 5 frames
    Codec ID : V_MPEG4/ISO/AVC
    Duration : 2 h 4 min
    Bit rate : 3 200 kb/s
    Width : 1 920 pixels
    Height : 800 pixels
    Display aspect ratio : 2.40:1
    Frame rate mode : Constant
    Frame rate : 23.976 (24000/1001) FPS
    Color space : YUV
    Chroma subsampling : 4:2:0
    Bit depth : 8 bits
    Scan type : Progressive
    Bits/(Pixel*Frame) : 0.087
    Stream size : 2.73 GiB (73%)
    Title : Captain America The First Avenger 2011 BluRay 1080p AC3 x264-CtHts
    Writing library : x264 core 142 r2431 ac76440
    Encoding settings : cabac=1 / ref=5 / deblock=1:0:0 / analyse=0x3:0x133 / me=umh / subme=10 / psy=1 / psy_rd=1.00:0.00 / mixed_ref=1 / me_range=24 / chroma_me=1 / trellis=2 / 8x8dct=1 / cqm=0 / deadzone=21,11 / fast_pskip=1 / chroma_qp_offset=-2 / threads=12 / lookahead_threads=2 / sliced_threads=0 / nr=0 / decimate=1 / interlaced=0 / bluray_compat=0 / constrained_intra=0 / bframes=8 / b_pyramid=2 / b_adapt=2 / b_bias=0 / direct=3 / weightb=1 / open_gop=0 / weightp=2 / keyint=240 / keyint_min=23 / scenecut=40 / intra_refresh=0 / rc_lookahead=60 / rc=2pass / mbtree=1 / bitrate=3200 / ratetol=1.0 / qcomp=0.60 / qpmin=10 / qpmax=51 / qpstep=4 / cplxblur=20.0 / qblur=0.5 / vbv_maxrate=62500 / vbv_bufsize=78125 / nal_hrd=none / filler=0 / ip_ratio=1.40 / aq=1:1.00
    Language : English
    Default : Yes
    Forced : Yes

    Audio 1
    ID : 2
    Format : AC-3
    Format/Info : Audio Coding 3
    Commercial name : Dolby Digital
    Codec ID : A_AC3
    Duration : 2 h 4 min
    Bit rate mode : Constant
    Bit rate : 640 kb/s
    Channel(s) : 6 channels
    Channel layout : L R C LFE Ls Rs
    Sampling rate : 48.0 kHz
    Frame rate : 31.250 FPS (1536 SPF)
    Bit depth : 16 bits
    Compression mode : Lossy
    Stream size : 569 MiB (15%)
    Title : Thai AC-3 5.1 at 640 Kbps BluRay Master
    Language : Thai
    Service kind : Complete Main
    Default : Yes
    Forced : Yes

    Audio 2
    ID : 3
    Format : AC-3
    Format/Info : Audio Coding 3
    Commercial name : Dolby Digital
    Codec ID : A_AC3
    Duration : 2 h 4 min
    Bit rate mode : Constant
    Bit rate : 448 kb/s
    Channel(s) : 6 channels
    Channel layout : L R C LFE Ls Rs
    Sampling rate : 48.0 kHz
    Frame rate : 31.250 FPS (1536 SPF)
    Bit depth : 16 bits
    Compression mode : Lossy
    Stream size : 398 MiB (10%)
    Title : English AC-3 5.1 at 448 Kbps
    Language : English
    Service kind : Complete Main
    Default : No
    Forced : No

    Text 1
    ID : 4
    Format : VobSub
    Muxing mode : zlib
    Codec ID : S_VOBSUB
    Codec ID/Info : Picture based subtitle format used on DVDs
    Title : Thai 480p From BluRay Master
    Language : Thai
    Default : No
    Forced : No

    Text 2
    ID : 5
    Format : VobSub
    Muxing mode : zlib
    Codec ID : S_VOBSUB
    Codec ID/Info : Picture based subtitle format used on DVDs
    Title : Thai 1080p BluRay Master
    Language : Thai
    Default : Yes
    Forced : Yes

    Text 3
    ID : 6
    Format : VobSub
    Muxing mode : zlib
    Codec ID : S_VOBSUB
    Codec ID/Info : Picture based subtitle format used on DVDs
    Title : Thai 1080p BluRay Master Big
    Language : Thai
    Default : No
    Forced : No

    Text 4
    ID : 7
    Format : VobSub
    Muxing mode : zlib
    Codec ID : S_VOBSUB
    Codec ID/Info : Picture based subtitle format used on DVDs
    Title : Thai 1080p BluRay Master Out
    Language : Thai
    Default : No
    Forced : No

    Text 5
    ID : 8
    Format : PGS
    Muxing mode : zlib
    Codec ID : S_HDMV/PGS
    Codec ID/Info : Picture based subtitle format used on BDs/HD-DVDs
    Title : Thai PGS BluRay Master
    Language : Thai
    Default : No
    Forced : No

    Text 6
    ID : 9
    Format : PGS
    Muxing mode : zlib
    Codec ID : S_HDMV/PGS
    Codec ID/Info : Picture based subtitle format used on BDs/HD-DVDs
    Title : Thai PGS BluRay Master Out
    Language : Thai
    Default : No
    Forced : No

    Text 7
    ID : 10
    Format : VobSub
    Muxing mode : zlib
    Codec ID : S_VOBSUB
    Codec ID/Info : Picture based subtitle format used on DVDs
    Title : English 1080p
    Language : English
    Default : No
    Forced : No

    Text 8
    ID : 11
    Format : UTF-8
    Codec ID : S_TEXT/UTF8
    Codec ID/Info : UTF-8 Plain Text
    Title : English SRT
    Language : English
    Default : No
    Forced : No

    Menu
    00:00:00.000 : en:00:00:00.000
    00:08:12.158 : en:00:08:12.158
    00:14:56.813 : en:00:14:56.813
    00:24:21.543 : en:00:24:21.543
    00:30:39.129 : en:00:30:39.129
    00:38:39.859 : en:00:38:39.859
    00:45:52.166 : en:00:45:52.166
    00:51:58.157 : en:00:51:58.157
    00:57:55.639 : en:00:57:55.639
    01:03:59.294 : en:01:03:59.294
    01:12:22.588 : en:01:12:22.588
    01:19:10.663 : en:01:19:10.663
    01:28:27.052 : en:01:28:27.052
    01:33:53.002 : en:01:33:53.002
    01:42:20.343 : en:01:42:20.343
    01:50:45.055 : en:01:50:45.055
    01:53:46.319 : en:01:53:46.319








    Captain America: The Winter Soldier - กัปตันอเมริกา: มัจจุราชอหังการ

    ประเภท/Type :
    Action/Adventure
    Sci-Fi/Fantasy

    สร้างโดย/Studio : Disney / Buana Vista

    รายละเอียดเรื่องย่อ/Synopsis
    หลังจากเหตุการณ์ครั้งใหญ่ในนิวยอร์คกับเหล่าซูเปอร์ ฮีโร่ ดิ อเวนเจอร์ส, “กัปตัน อเมริกา: มัจจุราชอหังการ” คือเรื่องราวของ สตีฟ โรเจอร์ หรือ กัปตัน อเมริกา ที่ใช้ชีวิตอย่างเงียบๆอยู่ในวอร์ชิงตัน ดี.ซี. และพยายามที่จะปรับตัวให้เข้ากับโลกในยุคปัจจุบัน แต่เมื่อเพื่อนเจ้าหน้าที่ในหน่วยชีลด์ถูกโจมตี สตีฟจึงต้องเข้าไปอยู่ในเหตุการณ์ที่โยงใยกับภัยคุกค ามที่ทำให้โลกตกอยู่ในอันตราย ด้วยการผนึกกำลังกับ แบล็ค วิโดว์, กัปตัน อเมริกาต้องพบกับความจริงอันน่าตกตะลึงที่กำลังจะเปิ ดเผย เมื่อเขาต่อสู้กับเหล่านักฆ่าระดับพระกาฬที่ถูกส่งมา ขัดขวางเขาในทุกย่างก้าว เมื่อเบื้องหลังทั้งหมดของเหล่าร้ายถูกเปิดเผย กัปตัน อเมริกา และ แบล็ค วิโดว์ ยังได้รับการช่วยเหลือจาก เดอะฟอลคอน พันธมิตรคนใหม่ แต่อย่างไรก็ตาม พวกเขาจะต้องพบกับสุดยอดวายร้ายที่พวกเข้าไม่เคยคาดค ิดที่ยากจะรับมือ – เดอะ วินเทอร์ โซลด์เยอร์

    นักแสดง/Actors :
    - Chris Evans
    - Samuel L. Jackson
    - Scarlett Johansson
    - Robert Redford
    - Sebastian Stan

    ผู้กำกับ/Directors :
    - Anthony Russo
    - Joe Russo

    *ดู INFO Report คลิ๊ก!*
    General
    Unique ID : 178622900027353150950592658992515164500 (0x866184E9BD90340682E5ADE2C9A6A954)
    Complete name : H:[m-HD] Captain America Trilogy 2011-2016 BluRay 1080p AC3 x264-CtHtsCaptain America The Winter Soldier 2014 BluRay 1080p AC3 x264-CtHts.mkv
    Format : Matroska
    Format version : Version 4
    File size : 4.13 GiB
    Duration : 2 h 15 min
    Overall bit rate : 4 349 kb/s
    Movie name : Captain America The Winter Soldier 2014 BluRay 1080p AC3 x264-CtHts
    Encoded date : UTC 2019-04-01 08:37:35
    Writing application : mkvmerge v6.9.1 ('Blue Panther') 32bit built on Apr 18 2014 18:15:44
    Writing library : libebml v1.3.0 + libmatroska v1.4.1

    Video
    ID : 1
    Format : AVC
    Format/Info : Advanced Video Codec
    Format profile : [email protected]
    Format settings : CABAC / 5 Ref Frames
    Format settings, CABAC : Yes
    Format settings, RefFrames : 5 frames
    Codec ID : V_MPEG4/ISO/AVC
    Duration : 2 h 15 min
    Bit rate : 3 200 kb/s
    Width : 1 920 pixels
    Height : 800 pixels
    Display aspect ratio : 2.40:1
    Frame rate mode : Constant
    Frame rate : 23.976 (24000/1001) FPS
    Color space : YUV
    Chroma subsampling : 4:2:0
    Bit depth : 8 bits
    Scan type : Progressive
    Bits/(Pixel*Frame) : 0.087
    Stream size : 3.01 GiB (73%)
    Title : Captain America The Winter Soldier 2014 BluRay 1080p AC3 x264-CtHts
    Writing library : x264 core 142 r2431 ac76440
    Encoding settings : cabac=1 / ref=5 / deblock=1:-1:-1 / analyse=0x3:0x133 / me=umh / subme=10 / psy=1 / psy_rd=1.00:0.00 / mixed_ref=1 / me_range=24 / chroma_me=1 / trellis=2 / 8x8dct=1 / cqm=0 / deadzone=21,11 / fast_pskip=1 / chroma_qp_offset=-2 / threads=12 / lookahead_threads=2 / sliced_threads=0 / nr=0 / decimate=1 / interlaced=0 / bluray_compat=0 / constrained_intra=0 / bframes=8 / b_pyramid=2 / b_adapt=2 / b_bias=0 / direct=3 / weightb=1 / open_gop=0 / weightp=2 / keyint=240 / keyint_min=23 / scenecut=40 / intra_refresh=0 / rc_lookahead=60 / rc=2pass / mbtree=1 / bitrate=3200 / ratetol=1.0 / qcomp=0.60 / qpmin=10 / qpmax=51 / qpstep=4 / cplxblur=20.0 / qblur=0.5 / vbv_maxrate=62500 / vbv_bufsize=78125 / nal_hrd=none / filler=0 / ip_ratio=1.40 / aq=1:1.00
    Language : English
    Default : Yes
    Forced : Yes

    Audio 1
    ID : 2
    Format : AC-3
    Format/Info : Audio Coding 3
    Commercial name : Dolby Digital
    Codec ID : A_AC3
    Duration : 2 h 15 min
    Bit rate mode : Constant
    Bit rate : 640 kb/s
    Channel(s) : 6 channels
    Channel layout : L R C LFE Ls Rs
    Sampling rate : 48.0 kHz
    Frame rate : 31.250 FPS (1536 SPF)
    Bit depth : 16 bits
    Compression mode : Lossy
    Stream size : 622 MiB (15%)
    Title : Thai AC-3 5.1 at 640 Kbps BluRay Master
    Language : Thai
    Service kind : Complete Main
    Default : Yes
    Forced : Yes

    Audio 2
    ID : 3
    Format : AC-3
    Format/Info : Audio Coding 3
    Commercial name : Dolby Digital
    Codec ID : A_AC3
    Duration : 2 h 15 min
    Bit rate mode : Constant
    Bit rate : 448 kb/s
    Channel(s) : 6 channels
    Channel layout : L R C LFE Ls Rs
    Sampling rate : 48.0 kHz
    Frame rate : 31.250 FPS (1536 SPF)
    Bit depth : 16 bits
    Compression mode : Lossy
    Stream size : 435 MiB (10%)
    Title : English AC-3 5.1 at 448 Kbps
    Language : English
    Service kind : Complete Main
    Default : No
    Forced : No

    Text 1
    ID : 4
    Format : VobSub
    Muxing mode : zlib
    Codec ID : S_VOBSUB
    Codec ID/Info : Picture based subtitle format used on DVDs
    Title : Thai 480p
    Language : Thai
    Default : No
    Forced : No

    Text 2
    ID : 5
    Format : VobSub
    Muxing mode : zlib
    Codec ID : S_VOBSUB
    Codec ID/Info : Picture based subtitle format used on DVDs
    Title : Thai 720p
    Language : Thai
    Default : No
    Forced : No

    Text 3
    ID : 6
    Format : VobSub
    Muxing mode : zlib
    Codec ID : S_VOBSUB
    Codec ID/Info : Picture based subtitle format used on DVDs
    Title : Thai 1080p BluRay Master
    Language : Thai
    Default : Yes
    Forced : Yes

    Text 4
    ID : 7
    Format : VobSub
    Muxing mode : zlib
    Codec ID : S_VOBSUB
    Codec ID/Info : Picture based subtitle format used on DVDs
    Title : Thai 1080p BluRay Master [Out]
    Language : Thai
    Default : No
    Forced : No

    Text 5
    ID : 8
    Format : PGS
    Muxing mode : zlib
    Codec ID : S_HDMV/PGS
    Codec ID/Info : Picture based subtitle format used on BDs/HD-DVDs
    Title : Thai PGS BluRay Master
    Language : Thai
    Default : No
    Forced : No

    Text 6
    ID : 9
    Format : PGS
    Muxing mode : zlib
    Codec ID : S_HDMV/PGS
    Codec ID/Info : Picture based subtitle format used on BDs/HD-DVDs
    Title : Thai PGS BluRay Master [Out]
    Language : Thai
    Default : No
    Forced : No

    Text 7
    ID : 10
    Format : VobSub
    Muxing mode : zlib
    Codec ID : S_VOBSUB
    Codec ID/Info : Picture based subtitle format used on DVDs
    Title : English 1080p
    Language : Thai
    Default : No
    Forced : No

    Text 8
    ID : 11
    Format : PGS
    Muxing mode : zlib
    Codec ID : S_HDMV/PGS
    Codec ID/Info : Picture based subtitle format used on BDs/HD-DVDs
    Title : English PGS
    Language : English
    Default : No
    Forced : No

    Text 9
    ID : 12
    Format : UTF-8
    Codec ID : S_TEXT/UTF8
    Codec ID/Info : UTF-8 Plain Text
    Title : English SRT
    Language : English
    Default : No
    Forced : No

    Menu
    00:00:00.000 : en:00:00:00.000
    00:03:28.667 : en:00:03:28.667
    00:13:31.728 : en:00:13:31.728
    00:17:57.868 : en:00:17:57.868
    00:22:25.302 : en:00:22:25.302
    00:33:20.415 : en:00:33:20.415
    00:41:27.276 : en:00:41:27.276
    00:51:37.303 : en:00:51:37.303
    00:58:23.959 : en:00:58:23.959
    01:07:40.348 : en:01:07:40.348
    01:16:22.203 : en:01:16:22.203
    01:24:43.078 : en:01:24:43.078
    01:32:17.699 : en:01:32:17.699
    01:37:06.612 : en:01:37:06.612
    01:49:13.088 : en:01:49:13.088
    01:55:03.730 : en:01:55:03.730
    02:01:11.055 : en:02:01:11.055
    02:06:22.241 : en:02:06:22.241








    Captain America: Civil War สตีฟ โรเจอร์ส นำทีมอเวนเจอร์สกลุ่มใหม่ออกปฏิบัติการ ในความพยายามปกป้องมนุษยชาติอย่างต่อเนื่อง
    หลังจากเหตุการณ์ต่าง ๆ ทั่วโลกที่เกี่ยวข้องกับเหล่าอเวนเจอร์สได้ทำให้เกิด ความเสียหายและส่งผลกระทบไปสู่ผู้บริสุทธิ์อื่นๆ
    กลุ่มการเมืองได้กดดันให้มีการจัดระบบขอบเขตความรับผ ิดชอบที่นำโดยคณะกรรมการเพื่อควบคุมและกำกับดูแลพวกเ ขา
    สถานภาพใหม่นี้ได้สร้างรอยร้าวให้กับเหล่าอเวนเจอร์ส ส่งผลให้เกิดการแบ่งเป็น 2 ฝ่าย ฝ่ายหนึ่งนำทีมโดย สตีฟ โรเจอร์
    และความต้องการที่จะให้อเวนเจอร์สยังคงปกป้องมนุษยชา ติได้อย่างมีอิสรภาพโดยปราศจากการแทรกแซงของรัฐบาล อีกหนึ่งทีมนำโดย โทนี่ สตาร์ค
    และการตัดสินใจที่น่าประหลาดใจในการสนับสนุนมาตรการใ นการถูกควบคุมดูแลโดยรัฐบาล
    เตรียมตัวเลือกฝ่ายและร่วมเป็นส่วนหนึ่งของภาพยนตร์แ อ็คชั่นแบบนันสต็อปกับสองผู้นำทีมทั้ง 2 ฝ่าย!!!
    .
    .
    Captain America: Civil War
    นำแสดงโดย: คริส อีแวนส์, โรเบิร์ต ดาวนีย์ จูเนียร์, สการ์เลตต์ โจแฮนสัน, เซบาสเตียน แสตน, แอนโธนี แม็คกี้, เอมิลี่ แวนแคมป์, ดอน เชียดัล, เจเรมี เรนเนอร์
    แชดวิค โบสแมน, พอล เบตตานี, อลิซาเบธ โอลเซน, พอล รัดด์, แฟรงค์ กริลโล่, ร่วมด้วย วิลเลียน เฮิร์ท และ แดเนียล บรูห์ล แอนโธนี
    รับหน้าที่ผู้กำกับ: โจ รัสโซ
    ผู้อำนวยการสร้าง: เควิน ไฟกี
    ผู้อำนวยการสร้างบริหาร: หลุยส์ ดิเอสโพซิโต, อลัน ไฟน์, วิคตอเรีย อลอนโซ, แพทริเซีย วิทช์เชอร์, เนท มัวร์, และ แสตน ลี
    บทภาพยนตร์โดย: คริสโตเฟอร์ มาร์คัส และ สตีเฟน แม็คฟีลีย์

    *ดู INFO Report คลิ๊ก!*
    General
    Unique ID : 187415460939251764221158615369566313484 (0x8CFEE7A2B4064E458C686AA750BEDC0C)
    Complete name : H:[m-HD] Captain America Trilogy 2011-2016 BluRay 1080p AC3 x264-CtHtsCaptain America Civil War 2016 IMAX BluRay 1080p AC3 x264-CtHts.mkv
    Format : Matroska
    Format version : Version 4
    File size : 4.16 GiB
    Duration : 2 h 27 min
    Overall bit rate : 4 029 kb/s
    Movie name : Captain America Civil War 2016 IMAX BluRay 1080p AC3 x264-CtHts
    Encoded date : UTC 2019-04-01 08:33:30
    Writing application : mkvmerge v6.9.1 ('Blue Panther') 32bit built on Apr 18 2014 18:15:44
    Writing library : libebml v1.3.0 + libmatroska v1.4.1

    Video
    ID : 1
    Format : AVC
    Format/Info : Advanced Video Codec
    Format profile : [email protected]
    Format settings : CABAC / 4 Ref Frames
    Format settings, CABAC : Yes
    Format settings, RefFrames : 4 frames
    Codec ID : V_MPEG4/ISO/AVC
    Duration : 2 h 27 min
    Bit rate : 2 850 kb/s
    Width : 1 920 pixels
    Height : 1 080 pixels
    Display aspect ratio : 16:9
    Frame rate mode : Constant
    Frame rate : 23.976 (24000/1001) FPS
    Color space : YUV
    Chroma subsampling : 4:2:0
    Bit depth : 8 bits
    Scan type : Progressive
    Bits/(Pixel*Frame) : 0.057
    Stream size : 2.95 GiB (71%)
    Title : Captain America Civil War 2016 IMAX BluRay 1080p AC3 x264-CtHts
    Writing library : x264 core 148 r2638 7599210
    Encoding settings : cabac=1 / ref=4 / deblock=1:-1:-1 / analyse=0x3:0x133 / me=umh / subme=7 / psy=1 / psy_rd=1.00:0.00 / mixed_ref=1 / me_range=30 / chroma_me=1 / trellis=1 / 8x8dct=1 / cqm=2 / deadzone=21,11 / fast_pskip=0 / chroma_qp_offset=-2 / threads=6 / lookahead_threads=1 / sliced_threads=0 / slices=4 / nr=0 / decimate=1 / interlaced=0 / bluray_compat=0 / constrained_intra=0 / bframes=5 / b_pyramid=2 / b_adapt=2 / b_bias=0 / direct=3 / weightb=1 / open_gop=0 / weightp=2 / keyint=240 / keyint_min=23 / scenecut=40 / intra_refresh=0 / rc_lookahead=50 / rc=2pass / mbtree=1 / bitrate=2850 / ratetol=1.0 / qcomp=0.60 / qpmin=1 / qpmax=69 / qpstep=4 / cplxblur=20.0 / qblur=0.5 / vbv_maxrate=62500 / vbv_bufsize=78125 / nal_hrd=none / filler=0 / ip_ratio=1.40 / aq=1:1.00
    Language : English
    Default : Yes
    Forced : Yes

    Audio 1
    ID : 2
    Format : AC-3
    Format/Info : Audio Coding 3
    Commercial name : Dolby Digital
    Codec ID : A_AC3
    Duration : 2 h 27 min
    Bit rate mode : Constant
    Bit rate : 640 kb/s
    Channel(s) : 6 channels
    Channel layout : L R C LFE Ls Rs
    Sampling rate : 48.0 kHz
    Frame rate : 31.250 FPS (1536 SPF)
    Bit depth : 16 bits
    Compression mode : Lossy
    Stream size : 676 MiB (16%)
    Title : Thai AC-3 5.1 at 640 Kbps BluRay Master
    Language : Thai
    Service kind : Complete Main
    Default : Yes
    Forced : Yes

    Audio 2
    ID : 3
    Format : AC-3
    Format/Info : Audio Coding 3
    Commercial name : Dolby Digital
    Codec ID : A_AC3
    Duration : 2 h 27 min
    Bit rate mode : Constant
    Bit rate : 448 kb/s
    Channel(s) : 6 channels
    Channel layout : L R C LFE Ls Rs
    Sampling rate : 48.0 kHz
    Frame rate : 31.250 FPS (1536 SPF)
    Bit depth : 16 bits
    Compression mode : Lossy
    Stream size : 473 MiB (11%)
    Title : English AC-3 5.1 at 448 Kbps
    Language : English
    Service kind : Complete Main
    Default : No
    Forced : No

    Text 1
    ID : 4
    Format : VobSub
    Muxing mode : zlib
    Codec ID : S_VOBSUB
    Codec ID/Info : Picture based subtitle format used on DVDs
    Title : Thai 480p
    Language : Thai
    Default : No
    Forced : No

    Text 2
    ID : 5
    Format : VobSub
    Muxing mode : zlib
    Codec ID : S_VOBSUB
    Codec ID/Info : Picture based subtitle format used on DVDs
    Title : Thai 720p
    Language : Thai
    Default : No
    Forced : No

    Text 3
    ID : 6
    Format : VobSub
    Muxing mode : zlib
    Codec ID : S_VOBSUB
    Codec ID/Info : Picture based subtitle format used on DVDs
    Title : Thai 1080p BluRay Master
    Language : Thai
    Default : Yes
    Forced : Yes

    Text 4
    ID : 7
    Format : VobSub
    Muxing mode : zlib
    Codec ID : S_VOBSUB
    Codec ID/Info : Picture based subtitle format used on DVDs
    Title : Thai For Non-English Part Only
    Language : Thai
    Default : No
    Forced : No

    Text 5
    ID : 8
    Format : VobSub
    Muxing mode : zlib
    Codec ID : S_VOBSUB
    Codec ID/Info : Picture based subtitle format used on DVDs
    Title : Thai 1080p Angsana
    Language : Thai
    Default : No
    Forced : No

    Text 6
    ID : 9
    Format : VobSub
    Muxing mode : zlib
    Codec ID : S_VOBSUB
    Codec ID/Info : Picture based subtitle format used on DVDs
    Title : Thai 1080p Yellow
    Language : Thai
    Default : No
    Forced : No

    Text 7
    ID : 10
    Format : VobSub
    Muxing mode : zlib
    Codec ID : S_VOBSUB
    Codec ID/Info : Picture based subtitle format used on DVDs
    Title : Thai 1080p Out
    Language : Thai
    Default : No
    Forced : No

    Text 8
    ID : 11
    Format : VobSub
    Muxing mode : zlib
    Codec ID : S_VOBSUB
    Codec ID/Info : Picture based subtitle format used on DVDs
    Title : Thai 1080p BIG
    Language : Thai
    Default : No
    Forced : No

    Text 9
    ID : 12
    Format : VobSub
    Muxing mode : zlib
    Codec ID : S_VOBSUB
    Codec ID/Info : Picture based subtitle format used on DVDs
    Title : Thai 1080p Out [BIG]
    Language : Thai
    Default : No
    Forced : No

    Text 10
    ID : 13
    Format : PGS
    Muxing mode : zlib
    Codec ID : S_HDMV/PGS
    Codec ID/Info : Picture based subtitle format used on BDs/HD-DVDs
    Title : Thai PGS BluRay Master
    Language : Thai
    Default : No
    Forced : No

    Text 11
    ID : 14
    Format : PGS
    Muxing mode : zlib
    Codec ID : S_HDMV/PGS
    Codec ID/Info : Picture based subtitle format used on BDs/HD-DVDs
    Title : Thai PGS Angsana
    Language : Thai
    Default : No
    Forced : No

    Text 12
    ID : 15
    Format : PGS
    Muxing mode : zlib
    Codec ID : S_HDMV/PGS
    Codec ID/Info : Picture based subtitle format used on BDs/HD-DVDs
    Title : Thai PGS Yellow
    Language : Thai
    Default : No
    Forced : No

    Text 13
    ID : 16
    Format : PGS
    Muxing mode : zlib
    Codec ID : S_HDMV/PGS
    Codec ID/Info : Picture based subtitle format used on BDs/HD-DVDs
    Title : Thai PGS Out
    Language : Thai
    Default : No
    Forced : No

    Text 14
    ID : 17
    Format : VobSub
    Muxing mode : zlib
    Codec ID : S_VOBSUB
    Codec ID/Info : Picture based subtitle format used on DVDs
    Title : English 1080p
    Language : English
    Default : No
    Forced : No

    Text 15
    ID : 18
    Format : UTF-8
    Codec ID : S_TEXT/UTF8
    Codec ID/Info : UTF-8 Plain Text
    Title : English SRT
    Language : English
    Default : No
    Forced : No

    Menu
    00:00:00.000 : en:Chapter 1
    00:09:01.374 : en:Chapter 2
    00:13:04.992 : en:Chapter 3
    00:21:03.345 : en:Chapter 4
    00:27:53.380 : en:Chapter 5
    00:31:57.290 : en:Chapter 6
    00:35:08.397 : en:Chapter 7
    00:42:57.616 : en:Chapter 8
    00:52:04.621 : en:Chapter 9
    01:05:39.101 : en:Chapter 10
    01:16:41.638 : en:Chapter 11
    01:22:28.777 : en:Chapter 12
    01:29:29.489 : en:Chapter 13
    01:34:09.769 : en:Chapter 14
    01:45:38.582 : en:Chapter 15
    01:55:54.322 : en:Chapter 16
    02:02:35.055 : en:Chapter 17
    02:12:14.176 : en:Chapter 18
    02:18:29.384 : en:Chapter 19








    Quote:

    เสียงไทยและบรรยายไทย บลูเรย์มาสเตอร์ By NongZEZA~ @ CtHts




    Quote:

    Modified by nfsphuket CtHts Team



    1 http://www.mekafile.com/dl.php?f=HZ7d92bSov7d
    2 http://www.mekafile.com/dl.php?f=usd2cbbSouTM
    3 http://www.mekafile.com/dl.php?f=kX0b2fbSovld


    Captain America Civil War 2016 IMAX BluRay 1080p AC3 x264-CtHts.mkv - 4.2 GB
    Captain America The First Avenger 2011 BluRay 1080p AC3 x264-CtHts.mkv - 3.7 GB
    Captain America The Winter Soldier 2014 BluRay 1080p AC3 x264-CtHts.mkv - 4.1 GB

  2. #2
    Senior Member
    สมัครเมื่อ
    Jun 2014
    โพสต์
    2,209
    Thanks
    0
    Thanked 0 Times in 0 Posts
    ขอบคุณครับ

  3. #3
    Senior Member
    สมัครเมื่อ
    Aug 2012
    โพสต์
    1,224
    Thanks
    0
    Thanked 0 Times in 0 Posts
    ขอบคุณครับ

+ ตอบกลับกระทู้

ข้อมูลกระทู้

Users Browsing this Thread

ในขณะนี้มี 2 ท่านดูกระทู้อยู่. (0 สมาชิกและ 2 ผู้เยี่ยมชม)

     

กฎการโพสต์ข้อความ

  • ท่าน ไม่สามารถ ตั้งกระทู้ใหม่ได้
  • ท่าน ไม่สามารถ ตอบกระทู้ได้
  • ท่าน ไม่สามารถ แนบไฟล์ได้
  • ท่าน ไม่สามารถ แก้ไขข้อความโพสต์ได้
  • BB code สถานะ เปิด
  • Smilies สถานะ เปิด
  • [IMG] สถานะ เปิด
  • HTML สถานะ ปิด