+ ตอบกลับกระทู้
สรุปผลการค้นหา 1 ถึง 1 จากทั้งหมด 1
  1. #1
    Administrators รูปส่วนตัว Duckload.us
    สมัครเมื่อ
    Dec 2010
    โพสต์
    118,741
    Thanks
    7
    Thanked 124,696 Times in 55,812 Posts

    Lightbulb [เกาหลี]-•[Netflix]• My Sassy Girl องค์หญิงตัวร้ายกับ คุณชายเจี๋ยมเจี้ยม [เสียงเกาหลี]-[บรรยายไทย + อังกฤษ]-[ซับไทย MASTER From Netflix]-[Soundtrack บรรยายไทย]-WEB-DL.H.264.1080p.





    Quote:










    Quote:




    Quote:

    My Sassy Girl ซีรีส์เวอร์ชั่นยุคโชซอนที่นำเอาเนื้อเรื่องต้นฉบับข อง ยัยตัวร้ายกับนายเจี๋ยมเจี้ยม มาเขียนใหม่ในรูปแบบความรักกุ๊กกิ๊กของกยอนอู หนุ่มอนาคตไกล ที่ได้รับการขนานนามว่า สมบัติแห่งชาติของโชซอน กับยัยเจ้าหญิงตัวร้าย ที่เมื่อได้โคจรเข้ามาในชีวิตของเขา กยอนอูก็ต้องพานพบกับความอีนุงตุงนังวุ่นวาย



    Quote:
    *ดู INFO Report คลิ๊ก!*
    Format : Matroska
    Format version : Version 4 / Version 2
    File size : 2.19 GiB
    Duration : 59 min 56 s
    Overall bit rate mode : Variable
    Overall bit rate : 5 234 kb/s

    Video
    ID : 1
    Format : AVC
    Format/Info : Advanced Video Codec
    Format profile : [email protected]
    Format settings, CABAC : Yes
    Format settings, ReFrames : 3 frames
    Codec ID : V_MPEG4/ISO/AVC
    Duration : 59 min 56 s
    Bit rate mode : Variable
    Bit rate : 5 110 kb/s
    Maximum bit rate : 7 665 kb/s
    Width : 1 920 pixels
    Height : 1 080 pixels
    Display aspect ratio : 16:9
    Frame rate mode : Constant
    Frame rate : 23.976 (24000/1001) FPS
    Color space : YUV
    Chroma subsampling : 4:2:0
    Bit depth : 8 bits
    Scan type : Progressive
    Bits/(Pixel*Frame) : 0.103
    Stream size : 2.09 GiB (96%)
    Writing library : x264 core 148 r2715 7e75228
    Encoding settings : cabac=1 / ref=3 / deblock=1:0:0 / analyse=0x1:0x111 / me=umh / subme=10 / psy=1 / psy_rd=1.00:0.00 / mixed_ref=1 / me_range=24 / chroma_me=1 / trellis=2 / 8x8dct=0 / cqm=0 / deadzone=21,11 / fast_pskip=1 / chroma_qp_offset=-2 / threads=8 / lookahead_threads=1 / sliced_threads=0 / nr=0 / decimate=1 / interlaced=0 / bluray_compat=0 / stitchable=1 / constrained_intra=0 / bframes=2 / b_pyramid=0 / b_adapt=2 / b_bias=0 / direct=3 / weightb=1 / open_gop=0 / weightp=2 / keyint=48 / keyint_min=25 / scenecut=0 / intra_refresh=0 / rc_lookahead=48 / rc=2pass / mbtree=1 / bitrate=5110 / ratetol=1.0 / qcomp=0.50 / qpmin=6 / qpmax=51 / qpstep=4 / cplxblur=20.0 / qblur=0.5 / vbv_maxrate=7665 / vbv_bufsize=10220 / nal_hrd=vbr / filler=0 / ip_ratio=1.40 / aq=1:1.00
    Default : Yes
    Forced : No
    DURATION : 00:59:56.051000000
    HANDLER_NAME : Video Media Handler

    Audio
    ID : 2
    Format : E-AC-3
    Format/Info : Enhanced Audio Coding 3
    Format settings, Endianness : Big
    Codec ID : A_EAC3
    Duration : 59 min 56 s
    Bit rate mode : Constant
    Bit rate : 128 kb/s
    Channel(s) : 2 channels
    Channel positions : Front: L R
    Sampling rate : 48.0 kHz
    Frame rate : 187.500 FPS (256 spf)
    Bit depth : 32 bits
    Compression mode : Lossy
    Stream size : 54.9 MiB (2%)
    Title : Korean [Original]
    Language : Korean
    Service kind : Complete Main
    Default : Yes
    Forced : No
    DURATION : 00:59:56.064000000
    HANDLER_NAME : Audio Media Handler

    Text 1
    ID : 3
    Format : UTF-8
    Codec ID : S_TEXT/UTF8
    Codec ID/Info : UTF-8 Plain Text
    Title : Arabic
    Language : Arabic
    Default : No
    Forced : No
    DURATION : 00:59:54.465000000

    Text 2
    ID : 4
    Format : UTF-8
    Codec ID : S_TEXT/UTF8
    Codec ID/Info : UTF-8 Plain Text
    Title : English
    Language : English
    Default : No
    Forced : No
    DURATION : 00:59:54.465000000

    Text 3
    ID : 5
    Format : UTF-8
    Codec ID : S_TEXT/UTF8
    Codec ID/Info : UTF-8 Plain Text
    Title : French
    Language : French
    Default : No
    Forced : No
    DURATION : 00:59:52.589000000

    Text 4
    ID : 6
    Format : UTF-8
    Codec ID : S_TEXT/UTF8
    Codec ID/Info : UTF-8 Plain Text
    Title : Thai
    Language : Thai
    Default : No
    Forced : No
    DURATION : 00:59:54.465000000

    Text 5
    ID : 7
    Format : UTF-8
    Codec ID : S_TEXT/UTF8
    Codec ID/Info : UTF-8 Plain Text
    Title : Turkish
    Language : Turkish
    Default : No
    Forced : No
    DURATION : 00:59:55.800000000

    Text 6
    ID : 8
    Format : UTF-8
    Codec ID : S_TEXT/UTF8
    Codec ID/Info : UTF-8 Plain Text
    Title : Simplified Chinese
    Language : Chinese-Hans
    Default : No
    Forced : No
    DURATION : 00:59:55.508000000

    Text 7
    ID : 9
    Format : UTF-8
    Codec ID : S_TEXT/UTF8
    Codec ID/Info : UTF-8 Plain Text
    Title : Traditional Chinese
    Language : Chinese-Hant
    Default : No
    Forced : No
    DURATION : 00:59:55.508000000





    Quote:




    1
    http://www.filecondo.com/dl.php?f=o01dd61HiNFp
    2
    http://www.filecondo.com/dl.php?f=3c940e1HiNGn
    3
    http://www.filecondo.com/dl.php?f=9d28781HiNIj
    4
    http://www.filecondo.com/dl.php?f=n1b59d1HiNK6
    5
    http://www.filecondo.com/dl.php?f=L4996e1HiNLa
    6
    http://www.filecondo.com/dl.php?f=714fff1HiNM5
    7
    http://www.filecondo.com/dl.php?f=w0b2df1HiNN2
    8
    http://www.filecondo.com/dl.php?f=R489b11HiNNZ
    9
    http://www.filecondo.com/dl.php?f=m0e7d01HiNOX
    10
    http://www.filecondo.com/dl.php?f=8519421HiNPU
    11
    http://www.filecondo.com/dl.php?f=22d4531HiNQT
    12
    http://www.filecondo.com/dl.php?f=C9b0ff1HiNRO
    13
    http://www.filecondo.com/dl.php?f=n889d91HiNSP
    14
    http://www.filecondo.com/dl.php?f=N00abc1HiNTN
    15
    http://www.filecondo.com/dl.php?f=u119581HiNUO
    16
    http://www.filecondo.com/dl.php?f=u57c0d1HiNVL

  2. The Following 2 Users Say Thank You to Duckload.us For This Useful Post:

    JOMMY_2 (05-12-2019), mahns8f2u (09-28-2019)

+ ตอบกลับกระทู้

ข้อมูลกระทู้

Users Browsing this Thread

ในขณะนี้มี 1 ท่านดูกระทู้อยู่. (0 สมาชิกและ 1 ผู้เยี่ยมชม)

     

กฎการโพสต์ข้อความ

  • ท่าน ไม่สามารถ ตั้งกระทู้ใหม่ได้
  • ท่าน ไม่สามารถ ตอบกระทู้ได้
  • ท่าน ไม่สามารถ แนบไฟล์ได้
  • ท่าน ไม่สามารถ แก้ไขข้อความโพสต์ได้
  • BB code สถานะ เปิด
  • Smilies สถานะ เปิด
  • [IMG] สถานะ เปิด
  • HTML สถานะ ปิด