+ ตอบกลับกระทู้
สรุปผลการค้นหา 1 ถึง 6 จากทั้งหมด 6
  1. #1
    Senior Member
    สมัครเมื่อ
    Feb 2015
    โพสต์
    3,613
    Thanks
    0
    Thanked 1,540 Times in 1,096 Posts

    Arrow [ลิ๊งเดียวจบ][SuperHQ] Special Forces (2011) : แหกด่านจู่โจมสายฟ้าแลบ [1080p][พากย์ไทย5.1+ฝรั่งเศลDTS][บรรยายไทย+อังกฤษ]

    [ลิ๊งเดียวจบ][SuperHQ] Special Forces (2011) : แหกด่านจู่โจมสายฟ้าแลบ [1080p][พากย์ไทย5.1+ฝรั่งเศลDTS][บรรยายไทย+อังกฤษ]

    https://www.imdb.com/title/tt1656192/ 6.4/1016,812 votes
    ที่ อัฟกานิสถาน ผู้สื่อข่าวสงคราม เอลซ่า คาซาโนว่า ถูกกลุ่มผู้ก่อการร้ายตาลีบันจับเป็นตัวประกัน เมื่อจวนเจียนถูกสังหาร หน่วยปฏิบัติการพิเศษหน่วยหนึ่งได้ถูกส่งไปช่วยชีวิต เธอ ในภูมิประเทศที่งดงามทว่าอันตรายที่สุดในโลก การไล่ล่าสุดระทึกได้เริ่มต้นขึ้นระหว่างกลุ่มโจรลัก พาตัวที่ไม่มีทางปล่อย ให้เหยื่อหนีรอดไปได้ กับหน่วยทหารที่เสี่ยงชีวิตเพื่อเป้าหมายเดียว นั่นคือพานักข่าวสาวกลับบ้านอย่างปลอดภัย ผู้หญิงแกร่งและเก่งคนหนึ่งกับกลุ่มชายชาติทหารจำต้อ งเผชิญสถานการณ์สุด อันตรายร่วมกัน ซึ่งสถานการณ์นั้นผูกมัดเขาอย่างใกล้ชิด รุนแรง และสะเทือนอารมณ์
    General
    Unique ID : 300472902987983322396702345224733662947 (0xE20CF9E3ED8281111A1643E0E0E11EE3)
    Complete name : D:\อัพหนัง\Special.Forces.2011.1080p.BrRip.DTS.x26 4_hdfile4you.clubhd4you.net.mkv
    Format : Matroska
    Format version : Version 4 / Version 2
    File size : 4.10 GiB
    Duration : 1h 48mn
    Overall bit rate : 5 402 Kbps
    Movie name : Special.Forces.2011.1080p.BrRip.DTS.x264_hdfile4yo u.clubhd4you.net
    Encoded date : UTC 2019-04-23 11:56:43
    Writing application : mkvmerge v33.1.0 ('Primrose') 64-bit
    Writing library : libebml v1.3.7 + libmatroska v1.5.0
    DURATION : 01:47:49.207000000
    NUMBER_OF_FRAMES : 597
    NUMBER_OF_BYTES : 12722
    _STATISTICS_WRITING_APP : mkvmerge v33.1.0 ('Primrose') 64-bit
    _STATISTICS_WRITING_DATE_UTC : 2019-04-23 11:56:43
    _STATISTICS_TAGS : BPS DURATION NUMBER_OF_FRAMES NUMBER_OF_BYTES

    Video
    ID : 1
    Format : AVC
    Format/Info : Advanced Video Codec
    Format profile : [email protected]
    Format settings, CABAC : Yes
    Format settings, ReFrames : 1 frame
    Codec ID : V_MPEG4/ISO/AVC
    Duration : 1h 48mn
    Bit rate : 3 402 Kbps
    Width : 1 920 pixels
    Height : 808 pixels
    Display aspect ratio : 2.40:1
    Frame rate mode : Constant
    Frame rate : 24.000 fps
    Color space : YUV
    Chroma subsampling : 4:2:0
    Bit depth : 8 bits
    Scan type : Progressive
    Bits/(Pixel*Frame) : 0.091
    Stream size : 2.58 GiB (63%)
    Title : Special.Forces.2011.1080p.BrRip.DTS.x264_hdfile4yo u.clubhd4you.net
    Writing library : x264 core 155 r2901 7d0ff22
    Language : French
    Default : Yes
    Forced : No
    Color primaries : BT.709
    Transfer characteristics : BT.709
    Matrix coefficients : BT.709

    Audio #1
    ID : 2
    Format : AC-3
    Format/Info : Audio Coding 3
    Mode extension : CM (complete main)
    Format settings, Endianness : Big
    Codec ID : A_AC3
    Duration : 1h 48mn
    Bit rate mode : Constant
    Bit rate : 384 Kbps
    Channel(s) : 6 channels
    Channel positions : Front: L C R, Side: L R, LFE
    Sampling rate : 48.0 KHz
    Bit depth : 16 bits
    Compression mode : Lossy
    Stream size : 299 MiB (7%)
    Title : Thai Master 5.1 By _hdfile4you.clubhd4you.net
    Language : Thai
    Default : Yes
    Forced : Yes

    Audio #2
    ID : 3
    Format : DTS
    Format/Info : Digital Theater Systems
    Mode : 16
    Format settings, Endianness : Big
    Codec ID : A_DTS
    Duration : 1h 48mn
    Bit rate mode : Constant
    Bit rate : 1 509 Kbps
    Channel(s) : 6 channels
    Channel positions : Front: L C R, Side: L R, LFE
    Sampling rate : 48.0 KHz
    Bit depth : 24 bits
    Compression mode : Lossy
    Stream size : 1.15 GiB (28%)
    Title : French DTS By _hdfile4you.clubhd4you.net
    Language : French
    Default : No
    Forced : No

    Text #1
    ID : 4
    Format : VobSub
    Muxing mode : zlib
    Codec ID : S_VOBSUB
    Codec ID/Info : The same subtitle format used on DVDs
    Title : Thai 480p By _hdfile4you
    Language : Thai
    Default : No
    Forced : No

    Text #2
    ID : 5
    Format : VobSub
    Muxing mode : zlib
    Codec ID : S_VOBSUB
    Codec ID/Info : The same subtitle format used on DVDs
    Title : Thai 1080p By _hdfile4you
    Language : Thai
    Default : No
    Forced : No

    Text #3
    ID : 6
    Format : VobSub
    Muxing mode : zlib
    Codec ID : S_VOBSUB
    Codec ID/Info : The same subtitle format used on DVDs
    Title : Thai 1080p Yellow By _hdfile4you
    Language : Thai
    Default : No
    Forced : No

    Text #4
    ID : 7
    Format : VobSub
    Muxing mode : zlib
    Codec ID : S_VOBSUB
    Codec ID/Info : The same subtitle format used on DVDs
    Title : Thai 1080p Out By _hdfile4you
    Language : Thai
    Default : No
    Forced : No

    Text #5
    ID : 8
    Format : PGS
    Muxing mode : zlib
    Codec ID : S_HDMV/PGS
    Codec ID/Info : The same subtitle format used on BDs/HD-DVDs
    Title : Thai PGS By _hdfile4you
    Language : Thai
    Default : Yes
    Forced : Yes

    Text #6
    ID : 9
    Format : PGS
    Muxing mode : zlib
    Codec ID : S_HDMV/PGS
    Codec ID/Info : The same subtitle format used on BDs/HD-DVDs
    Title : Thai PGS Yellow By _hdfile4you
    Language : Thai
    Default : No
    Forced : No

    Text #7
    ID : 10
    Format : PGS
    Muxing mode : zlib
    Codec ID : S_HDMV/PGS
    Codec ID/Info : The same subtitle format used on BDs/HD-DVDs
    Title : Thai PGS Out By _hdfile4you
    Default : No
    Forced : No

    Text #8
    ID : 11
    Format : UTF-8
    Codec ID : S_TEXT/UTF8
    Codec ID/Info : UTF-8 Plain Text
    Title : English
    Language : English
    Default : No
    Forced : No


    SuperHQ 1080p
    Download

    ลิ๊งเดียวจบ
    Download
    *** ถ้าโหลดไม่ได้แสดงว่าติด Limit ต้องรอพรุ่งนี้เพราะคนโหลดเยอะนะครับ ***

    ลิ๊งเดียวจบ
    Download
    PASS : http://hdfile4you.clubhd4you.net/

  2. The Following User Says Thank You to 4youloadedth For This Useful Post:

    Ausalaya (08-22-2019)

  3. #2
    Senior Member
    สมัครเมื่อ
    Aug 2017
    โพสต์
    323
    Thanks
    0
    Thanked 0 Times in 0 Posts
    ERROR for site owner:
    Invalid domain for site key โหลดไม่ได้ครับผม

  4. #3
    Senior Member
    สมัครเมื่อ
    Aug 2017
    โพสต์
    323
    Thanks
    0
    Thanked 0 Times in 0 Posts
    โอเคโหลดได้เเล้วครับ ขอบคุณครับ

  5. #4
    Junior Member
    สมัครเมื่อ
    Jan 2013
    โพสต์
    6
    Thanks
    0
    Thanked 0 Times in 0 Posts
    http://clkfly.pw/entrar/kRVTFNUR-1
    มันค้างหน้านี้ไม่ไปไหนต่อ ต้องทำไงครับ

  6. #5
    Member
    สมัครเมื่อ
    Mar 2019
    โพสต์
    54
    Thanks
    11
    Thanked 0 Times in 0 Posts
    Thkkkkkkkkkk

  7. #6
    Senior Member
    สมัครเมื่อ
    Sep 2011
    โพสต์
    1,531
    Thanks
    1,556
    Thanked 0 Times in 0 Posts
    Thkkkkkkkkkkkkkkkkkkk

+ ตอบกลับกระทู้

ข้อมูลกระทู้

Users Browsing this Thread

ในขณะนี้มี 1 ท่านดูกระทู้อยู่. (0 สมาชิกและ 1 ผู้เยี่ยมชม)

     

กฎการโพสต์ข้อความ

  • ท่าน ไม่สามารถ ตั้งกระทู้ใหม่ได้
  • ท่าน ไม่สามารถ ตอบกระทู้ได้
  • ท่าน ไม่สามารถ แนบไฟล์ได้
  • ท่าน ไม่สามารถ แก้ไขข้อความโพสต์ได้
  • BB code สถานะ เปิด
  • Smilies สถานะ เปิด
  • [IMG] สถานะ เปิด
  • HTML สถานะ ปิด