+ ตอบกลับกระทู้
สรุปผลการค้นหา 1 ถึง 1 จากทั้งหมด 1
  1. #1
    Administrators รูปส่วนตัว Duckload.us
    สมัครเมื่อ
    Dec 2010
    โพสต์
    118,741
    Thanks
    7
    Thanked 124,693 Times in 55,812 Posts

    Lightbulb [ญี่ปุ่น]- Toaru Majutsu no Index III (2018) / คัมภีร์คาถาต้องห้าม ภาค 3 (2018) ตอนที่ 1-26 [จบ]-[ซับไทย]--HDTV.H.264.720p. [อัดจาก TV]-[Soundtrack บรรยายไทย]



    โลกอนาคต ในสมัยที่ความสามารถต่างๆของผู้มีพลังพิเศษ (ผู้มีพลังจิต, Psychics, Espers) กลายเป็นสาขาหนึ่งของวิทยาศาสตร์ โคจรมาพบกับ อำนาจเหนือธรรมชาติอีกชนิดหนึ่ง คือ เวทมนตร์ (Magic) เรื่องราวดำเนินไป ณ เมืองแห่งการศึกษา ซึ่งมีเทคโนโลยีสูงมาก อยู่ทางตะวันตกของกรุงโตเกียว ประเทศญี่ปุ่น วันหนึ่งชีวิตของโทมะก็ต้องเปลี่ยนไป เมื่อมีแม่ชี (อายุไล่เลี่ยกับเขา) คนหนึ่ง นอนสลบพาดอยู่ที่ระเบียงห้องของเขา เธอชื่อว่าอินเด็กซ์ อินเด็กซ์มีความทรงจำที่ดีมาก เธอสามารถจดจำ คัมภีร์เวทมนตร์กว่าแสนเล่มไว้ได้ ทำให้เธอต้องถูกตามล่าจากเหล่าผู้มีเวทมนตร์ โทมะได้ช่วยเหลืออินเด็กซ์ไว้ ให้ที่พักพิงกับเธอ และคอยช่วยเหลือเธอจาการถูกตามล่า จากทั้งฝ่ายเวทมนตร์และฝ่ายวิทยาศาสตร์

    ซับไทยโดย Nemuria Fansub , Oyuji-Fs & Ararato-Fs


    General
    Complete name : To Aru Majutsu no Index SS3 Ep.1-126 SubTH [End] by Demon Emperor
    Format : Matroska
    Format version : Version 4
    File size : 264 MiB
    Duration : 23 min 40 s
    Overall bit rate : 1 561 kb/s
    Movie name : Toaru Majutsu no Index SS3 [email protected] Emperor
    Encoded date : UTC 2019-04-12 14:28:29
    Writing application : mkvmerge v10.0.0 ('To Drown In You') 64bit
    Writing library : libebml v1.3.4 + libmatroska v1.4.5
    Cover : Yes
    Attachments : cover.jpg

    Video
    ID : 1
    Format : AVC
    Format/Info : Advanced Video Codec
    Format profile : [email protected]
    Format settings : CABAC / 3 Ref Frames
    Format settings, CABAC : Yes
    Format settings, ReFrames : 3 frames
    Codec ID : V_MPEG4/ISO/AVC
    Duration : 23 min 40 s
    Bit rate : 1 430 kb/s
    Width : 1 280 pixels
    Height : 720 pixels
    Display aspect ratio : 16:9
    Frame rate mode : Constant
    Frame rate : 23.976 (24000/1001) FPS
    Color space : YUV
    Chroma subsampling : 4:2:0
    Bit depth : 8 bits
    Scan type : Progressive
    Bits/(Pixel*Frame) : 0.065
    Stream size : 242 MiB (92%)
    Title : Toaru Majutsu no Index SS3 [email protected] Emperor
    Language : Japanese
    Default : Yes
    Forced : No
    Color range : Limited
    Color primaries : BT.709
    Transfer characteristics : BT.709
    Matrix coefficients : BT.709

    Audio
    ID : 2
    Format : AAC LC
    Format/Info : Advanced Audio Codec Low Complexity
    Codec ID : A_AAC-2
    Duration : 23 min 40 s
    Bit rate : 126 kb/s
    Channel(s) : 2 channels
    Channel layout : L R
    Sampling rate : 44.1 kHz
    Frame rate : 43.066 FPS (1024 SPF)
    Compression mode : Lossy
    Stream size : 21.3 MiB (8%)
    Language : Japanese
    Default : Yes
    Forced : No



    7.82 GB
    http://www.filecondo.com/dl.php?f=S6feae1HkmsD

  2. The Following User Says Thank You to Duckload.us For This Useful Post:

    Tellmon (05-03-2019)

+ ตอบกลับกระทู้

ข้อมูลกระทู้

Users Browsing this Thread

ในขณะนี้มี 1 ท่านดูกระทู้อยู่. (0 สมาชิกและ 1 ผู้เยี่ยมชม)

     

กฎการโพสต์ข้อความ

  • ท่าน ไม่สามารถ ตั้งกระทู้ใหม่ได้
  • ท่าน ไม่สามารถ ตอบกระทู้ได้
  • ท่าน ไม่สามารถ แนบไฟล์ได้
  • ท่าน ไม่สามารถ แก้ไขข้อความโพสต์ได้
  • BB code สถานะ เปิด
  • Smilies สถานะ เปิด
  • [IMG] สถานะ เปิด
  • HTML สถานะ ปิด