+ ตอบกลับกระทู้
สรุปผลการค้นหา 1 ถึง 3 จากทั้งหมด 3
  1. #1
    Administrators รูปส่วนตัว Duckload.us
    สมัครเมื่อ
    Dec 2010
    โพสต์
    111,263
    Thanks
    7
    Thanked 116,713 Times in 53,142 Posts

    Cool [ฝรั่ง] [ซับไทยคมชัดจาก HBO] Game of Thrones Season 8 (Episode 04 : The Last of the Starks) มหาศึกชิงบัลลังก์ ปี8 ตอน4 (สตาร์กที่เหลืออยู่) Web-DL 1080p [เสียงอังกฤษ 5.1 + ซับไทยคมชัดจาก HBO]-WEB-DL.H.264.1080p. [From HD-TV]-[Soundtrack บรรยายไทย]








    เรื่องย่อ
    มหาศึกชิงบัลลังก์ (อังกฤษ: Game of Thrones) เป็นภาพยนตร์ชุดทางโทรทัศน์แนวแฟนตาซีย้อนยุคของสถาน ีโทรทัศน์เอชบีโอ สร้างสรรค์โดยเดวิด เบนิออฟฟ์ และดี. บี. ไวส์ ดัดแปลงจากหนังสือเล่มที่หนึ่งของชุดหนังสือนิยายขาย ดีของจอร์จ อาร์. อาร์. มาร์ติน ชุด มหาศึกชิงบัลลังก์ เรื่อง เกมล่าบัลลังก์ ฉายครั้งแรกในสหรัฐอเมริกา 17 เมษายน 2554 ภาพยนตร์ชุดนี้ได้รับเสียงตอบรับอย่างดีมาก มีผู้ติดตามเป็นจำนวนมาก และได้รับการอนุมัติให้ทำฤดูกาลที่ 2 ต่อจากฤดูกาลแรก ในวันที่ 19 เมษายน 2554 สองวันหลังจากฉายตอนแรก



    Complete name : Game.of.Thrones.S08E04.1080p.AMZN.WEB-DL.DDP5.1.H.264-vicvicky.mkv
    Format : Matroska
    Format version : Version 4 / Version 2
    File size : 4.03 GiB
    Duration : 1 h 18 min
    Overall bit rate : 7 314 kb/s
    Movie name : Game.of.Thrones.S08E04.1080p.AMZN.WEB-DL.DDP5.1.H.264-vicvicky
    Encoded date : UTC 2019-05-06 09:53:45
    Writing application : mkvmerge v8.9.0 ('Father Daughter') 64bit
    Writing library : libebml v1.3.3 + libmatroska v1.4.4

    Video
    ID : 1
    Format : AVC
    Format/Info : Advanced Video Codec
    Format profile : [email protected]
    Format settings, CABAC : Yes
    Format settings, RefFrames : 4 frames
    Codec ID : V_MPEG4/ISO/AVC
    Duration : 1 h 18 min
    Bit rate mode : Constant
    Bit rate : 6 591 kb/s
    Nominal bit rate : 10 000 kb/s
    Width : 1 920 pixels
    Height : 1 080 pixels
    Display aspect ratio : 16:9
    Frame rate mode : Constant
    Frame rate : 23.976 (24000/1001) FPS
    Color space : YUV
    Chroma subsampling : 4:2:0
    Bit depth : 8 bits
    Scan type : Progressive
    Bits/(Pixel*Frame) : 0.133
    Stream size : 3.63 GiB (90%)
    Title : Game.of.Thrones.S08E04.1080p.AMZN.WEB-DL.DDP5.1.H.264-vicvicky
    Default : Yes
    Forced : No
    Color range : Limited
    Color primaries : BT.709
    Transfer characteristics : BT.709
    Matrix coefficients : BT.709

    Audio
    ID : 2
    Format : E-AC-3
    Format/Info : Enhanced Audio Coding 3
    Format settings, Endianness : Big
    Codec ID : A_EAC3
    Duration : 1 h 18 min
    Bit rate mode : Constant
    Bit rate : 640 kb/s
    Channel(s) : 6 channels
    Channel positions : Front: L C R, Side: L R, LFE
    Sampling rate : 48.0 kHz
    Frame rate : 187.500 FPS (256 SPF)
    Compression mode : Lossy
    Delay relative to video : 6 ms
    Stream size : 361 MiB (9%)
    Title : 5.1
    Language : English
    Service kind : Complete Main
    Default : Yes
    Forced : No

    Text 1
    ID : 3
    Format : VobSub
    Codec ID : S_VOBSUB
    Codec ID/Info : Picture based subtitle format used on DVDs
    Duration : 1 h 11 min
    Bit rate : 2 143 b/s
    Count of elements : 857
    Stream size : 1.10 MiB (0%)
    Title : 480p
    Language : Thai
    Default : Yes
    Forced : No

    Text 2
    ID : 4
    Format : VobSub
    Codec ID : S_VOBSUB
    Codec ID/Info : Picture based subtitle format used on DVDs
    Duration : 1 h 11 min
    Bit rate : 9 483 b/s
    Count of elements : 857
    Stream size : 4.86 MiB (0%)
    Title : Angsna 1080p
    Language : Thai
    Default : No
    Forced : No

    Text 3
    ID : 5
    Format : VobSub
    Codec ID : S_VOBSUB
    Codec ID/Info : Picture based subtitle format used on DVDs
    Duration : 1 h 11 min
    Bit rate : 7 494 b/s
    Count of elements : 857
    Stream size : 3.84 MiB (0%)
    Title : Tahoma 1080p
    Language : Thai
    Default : No
    Forced : No

    Text 4
    ID : 6
    Format : PGS
    Codec ID : S_HDMV/PGS
    Codec ID/Info : Picture based subtitle format used on BDs/HD-DVDs
    Duration : 1 h 11 min
    Bit rate : 38.9 kb/s
    Count of elements : 1714
    Stream size : 19.9 MiB (0%)
    Title : Angsna PGS
    Language : Thai
    Default : No
    Forced : Yes

    Text 5
    ID : 7
    Format : PGS
    Codec ID : S_HDMV/PGS
    Codec ID/Info : Picture based subtitle format used on BDs/HD-DVDs
    Duration : 1 h 11 min
    Bit rate : 30.9 kb/s
    Count of elements : 1714
    Stream size : 15.8 MiB (0%)
    Title : Tahoma PGA
    Language : Thai
    Default : No
    Forced : No

    Text 6
    ID : 8
    Format : UTF-8
    Codec ID : S_TEXT/UTF8
    Codec ID/Info : UTF-8 Plain Text
    Duration : 1 h 18 min
    Bit rate : 48 b/s
    Count of elements : 982
    Stream size : 28.1 KiB (0%)
    Title : SDH
    Language : English
    Default : No
    Forced : No

    Menu
    00:00:00.000 : en:Ratings
    00:00:02.926 : en:Previously On
    00:01:12.926 : en:Opening Credits
    00:03:06.926 : en:The shields that guarded the realms of men
    00:08:52.926 : en:A feast to celebrate
    00:12:11.926 : en:A person that men will want to follow
    00:17:50.926 : en:Celebrations and confessions
    00:22:23.926 : en:The Lady of Storm's End
    00:24:22.926 : en:Follow the drinking game rules
    00:27:24.926 : en:Swearing to secrecy
    00:31:55.926 : en:A plan of action
    00:36:05.926 : en:The importance of family
    00:38:26.926 : en:The word of a Lannister
    00:42:38.926 : en:Unfinished business in King's Landing
    00:43:58.926 : en:The North and King's Landing must be allies
    00:47:17.926 : en:A friend's farewell
    00:50:42.926 : en:A secret can quickly spread
    00:52:57.926 : en:The unthinkable happens
    00:55:52.926 : en:So much for the breaker of chains
    00:57:57.926 : en:Tyrants or Queens
    01:04:03.926 : en:What it means to be a good man
    01:07:52.926 : en:An opportunity to surrender
    01:16:54.926 : en:End Credits
    01:18:13.926 : en:Next Time













    Download: filecondo
    http://www.filecondo.com/dl.php?f=h1f85f1HnDfv
    Download: cornfile
    http://cornfile.com/3qlakvxgotii
    Download: mekafile
    http://www.mekafile.com/dl.php?f=pf497ebTFty2
    อีกหลายทางเลือก
    [ฝรั่ง]-Game of Thrones Season 8 Episode 4 - The Last of the Starks [ซับไทยแท้ HBO]-HDTV.H.264.1080p. [From HD-TV]-[Soundtrack บรรยายไทย]

    [ฝรั่ง]-[Game of Thrones (2019) Season 8 Episode 4 The Last of the Starks AirDate May 5,2019-HDTV.H.264.1080p. [From HD-TV]-[Sound:Eng]-[Sub:Thai/Eng]

    [ฝรั่ง]-Game Of Thrones S08E04-Encode.H.264.1080p. [Master From HBO GO]-[Soundtrack บรรยายไทย]

  2. The Following 2 Users Say Thank You to Duckload.us For This Useful Post:

    mahns8f2u (05-08-2019), Wesker_TOT (05-10-2019)

  3. #2
    Senior Member
    สมัครเมื่อ
    Dec 2013
    โพสต์
    1,998
    Thanks
    3,915
    Thanked 0 Times in 0 Posts
    ขอบคุณมากครับ...

  4. #3
    Senior Member
    สมัครเมื่อ
    Jun 2014
    โพสต์
    2,579
    Thanks
    0
    Thanked 0 Times in 0 Posts
    ขอบคุณครับ

+ ตอบกลับกระทู้

ข้อมูลกระทู้

Users Browsing this Thread

ในขณะนี้มี 1 ท่านดูกระทู้อยู่. (0 สมาชิกและ 1 ผู้เยี่ยมชม)

     

กฎการโพสต์ข้อความ

  • ท่าน ไม่สามารถ ตั้งกระทู้ใหม่ได้
  • ท่าน ไม่สามารถ ตอบกระทู้ได้
  • ท่าน ไม่สามารถ แนบไฟล์ได้
  • ท่าน ไม่สามารถ แก้ไขข้อความโพสต์ได้
  • BB code สถานะ เปิด
  • Smilies สถานะ เปิด
  • [IMG] สถานะ เปิด
  • HTML สถานะ ปิด