+ ตอบกลับกระทู้
สรุปผลการค้นหา 1 ถึง 3 จากทั้งหมด 3
  1. #1
    Administrators รูปส่วนตัว Duckload.us
    สมัครเมื่อ
    Dec 2010
    โพสต์
    115,928
    Thanks
    7
    Thanked 122,378 Times in 54,895 Posts

    Question [ฝรั่ง] Mission Impossible Fallout (2018) [MKV HEVC 4K HDR10] [English : Dolby Atmos / Dolby TrueHD 7.1 Ch / HE-AAC 7.1 Ch] [พากย์ไทย : HE-AAC 5.1 Ch] [บรรยาย PGS : English / ไทย]



    Mission Impossible Fallout (2018) [MKV HEVC 4K HDR10]
    [English : Dolby Atmos / Dolby TrueHD 7.1 Ch / HE-AAC 7.1 Ch] [พากย์ไทย : HE-AAC 5.1 Ch] [บรรยาย PGS : English / ไทย]

    พบกับการกลับมาของทอม ครูซ ใน Mission Impossible Fallout มิชชั่น อิมพอสซิเบิ้ล ฟอลล์เอาท์
    ซึ่งอีธาน ฮันท์ (ทอม ครูซ) และทีม IMF (อเล็ก บอลด์วิน, ไซม่อน เพ็กก์, วิง เรมส์) พร้อมด้วยพันธมิตร (รีเบ็คกา เฟอร์กูสัน และมิเชลล์ โมนาแฮน)
    ต้องกลับมาในปฏิบัติการที่ต้องแข่งกับเวลาหลังจากที่ ภารกิจเกิดความผิดพลาด นอกเหนือจากนักแสดงทีมเดิมแล้ว
    ภาพยนตร์ยังได้ เฮนรี่ คาวิลล์, แองเจลา บาสเส็ตต์ และ วาเนสซา เคอร์บี้ มาร่วมงานด้วย คริสโตเฟอร์ แม็คควอร์รี่ ยังคงรับหน้าที่ผู้กำกับในภาคนี้เช่นเดิม!!







    Media Info

    Quote:

    General
    Complete name : Mission Impossible Fallout (2018) 4K [EN TrueHD 7.1 Atmos HE-AAC 7.1 TH HE-AAC 5.1].mkv
    Format : Matroska
    Format version : Version 4
    File size : 15.7 GiB
    Duration : 2 h 27 min
    Overall bit rate mode : Variable
    Overall bit rate : 15.2 Mb/s
    Movie name : Mission Impossible Fallout (2018) 4K [EN TrueHD 7.1 Atmos HE-AAC 7.1 TH HE-AAC 5.1]
    Encoded date : UTC 2019-05-10 01:54:02
    Writing application : mkvmerge v30.1.0 ('Forever And More') 64-bit
    Writing library : libebml v1.3.6 + libmatroska v1.4.9

    Video
    ID : 1
    Format : HEVC
    Format/Info : High Efficiency Video Coding
    Commercial name : HDR10
    Format profile : Main [email protected]@High
    Codec ID : V_MPEGH/ISO/HEVC
    Duration : 2 h 27 min
    Bit rate : 9 754 kb/s
    Width : 3 840 pixels
    Height : 2 160 pixels
    Display aspect ratio : 16:9
    Frame rate mode : Constant
    Frame rate : 23.976 (24000/1001) FPS
    Color space : YUV
    Chroma subsampling : 4:2:0 (Type 2)
    Bit depth : 10 bits
    Bits/(Pixel*Frame) : 0.049
    Stream size : 10.0 GiB (64%)
    Default : Yes
    Forced : No
    Color range : Limited
    Color primaries : BT.2020
    Transfer characteristics : PQ
    Matrix coefficients : BT.2020 non-constant
    Mastering display color primar : Display P3
    Mastering display luminance : min: 0.0001 cd/m2, max: 1000 cd/m2

    Audio 1
    ID : 2
    Format : MLP FBA 16-ch
    Format/Info : Meridian Lossless Packing FBA with 16-channel presentation
    Commercial name : Dolby TrueHD with Dolby Atmos
    Codec ID : A_TRUEHD
    Duration : 2 h 27 min
    Bit rate mode : Variable
    Bit rate : 5 026 kb/s
    Maximum bit rate : 8 175 kb/s
    Channel(s) : 8 channels
    Channel layout : L R C LFE Ls Rs Lb Rb
    Sampling rate : 48.0 kHz
    Frame rate : 1 200.000 FPS (40 SPF)
    Compression mode : Lossless
    Stream size : 5.17 GiB (33%)
    Language : English
    Default : Yes
    Forced : No
    Number of dynamic objects : 11
    Bed channel count : 1 channel
    Bed channel configuration : LFE

    Audio 2
    ID : 3
    Format : AAC LC SBR
    Format/Info : Advanced Audio Codec Low Complexity with Spectral Band Replication
    Commercial name : HE-AAC
    Format settings : Explicit
    Codec ID : A_AAC-2
    Duration : 2 h 27 min
    Bit rate : 201 kb/s
    Channel(s) : 8 channels
    Channel layout : C L R Ls Rs Lb Rb LFE
    Sampling rate : 48.0 kHz
    Frame rate : 23.438 FPS (2048 SPF)
    Compression mode : Lossy
    Delay relative to video : 36 ms
    Stream size : 212 MiB (1%)
    Language : English
    Default : No
    Forced : No

    Audio 3
    ID : 4
    Format : AAC LC SBR
    Format/Info : Advanced Audio Codec Low Complexity with Spectral Band Replication
    Commercial name : HE-AAC
    Format settings : Explicit
    Codec ID : A_AAC-2
    Duration : 2 h 27 min
    Bit rate : 144 kb/s
    Channel(s) : 6 channels
    Channel layout : C L R Ls Rs LFE
    Sampling rate : 48.0 kHz
    Frame rate : 23.438 FPS (2048 SPF)
    Compression mode : Lossy
    Delay relative to video : 36 ms
    Stream size : 155 MiB (1%)
    Language : Thai
    Default : No
    Forced : No

    Text 1
    ID : 5
    Format : PGS
    Muxing mode : zlib
    Codec ID : S_HDMV/PGS
    Codec ID/Info : Picture based subtitle format used on BDs/HD-DVDs
    Duration : 2 h 19 min
    Bit rate : 29.5 kb/s
    Count of elements : 3116
    Stream size : 29.3 MiB (0%)
    Language : English
    Default : No
    Forced : No

    Text 2
    ID : 6
    Format : PGS
    Muxing mode : zlib
    Codec ID : S_HDMV/PGS
    Codec ID/Info : Picture based subtitle format used on BDs/HD-DVDs
    Duration : 2 h 27 min
    Bit rate : 27.9 kb/s
    Count of elements : 2776
    Stream size : 29.4 MiB (0%)
    Language : Thai
    Default : No
    Forced : No

    Menu
    00:00:00.000 : en01)00:00:00:000
    00:10:37.011 : en02)00:10:37:011
    00:17:11.405 : en03)00:17:11:405
    00:26:57.240 : en04)00:26:57:240
    00:35:56.654 : en05)00:35:56:654
    00:49:18.413 : en06)00:49:18:413
    01:00:00.805 : en07)01:00:00:805
    01:10:23.719 : en08)01:10:23:719
    01:17:07.289 : en09)01:17:07:289
    01:28:28.469 : en10)01:28:28:469
    01:39:09.652 : en11)01:39:09:652
    01:46:26.546 : en12)01:46:26:546
    01:55:45.563 : en13)01:55:45:563
    02:03:10.591 : en14)02:03:10:591
    02:14:00.907 : en15)02:14:00:907
    02:19:48.088 : en16)02:19:48:088
    02:27:24.669 : en17)02:27:24:669


    Download: cornfile
    http://cornfile.com/4yerwpahx8rk
    Download: mekafile
    http://www.mekafile.com/dl.php?f=DTbd1cbTRGiF

  2. The Following User Says Thank You to Duckload.us For This Useful Post:

    Wesker_TOT (05-15-2019)

  3. #2
    Senior Member
    สมัครเมื่อ
    Dec 2013
    โพสต์
    2,123
    Thanks
    4,043
    Thanked 0 Times in 0 Posts
    ขอบคุณครับ...

  4. #3
    Senior Member
    สมัครเมื่อ
    Jul 2012
    โพสต์
    6,877
    Thanks
    0
    Thanked 0 Times in 0 Posts
    ขอบคุณมากจ้า

+ ตอบกลับกระทู้

ข้อมูลกระทู้

Users Browsing this Thread

ในขณะนี้มี 1 ท่านดูกระทู้อยู่. (0 สมาชิกและ 1 ผู้เยี่ยมชม)

     

กฎการโพสต์ข้อความ

  • ท่าน ไม่สามารถ ตั้งกระทู้ใหม่ได้
  • ท่าน ไม่สามารถ ตอบกระทู้ได้
  • ท่าน ไม่สามารถ แนบไฟล์ได้
  • ท่าน ไม่สามารถ แก้ไขข้อความโพสต์ได้
  • BB code สถานะ เปิด
  • Smilies สถานะ เปิด
  • [IMG] สถานะ เปิด
  • HTML สถานะ ปิด