+ ตอบกลับกระทู้
สรุปผลการค้นหา 1 ถึง 5 จากทั้งหมด 5
  1. #1
    Administrators รูปส่วนตัว Duckload.us
    สมัครเมื่อ
    Dec 2010
    โพสต์
    131,531
    Thanks
    7
    Thanked 135,188 Times in 59,793 Posts

    Lightbulb [ญี่ปุ่น]-Digimon Adventure ดิจิมอนแอดเวนเจอร์-Remux.H.264.1080p. [rip from Master]-[พากย์ไทย บรรยายอังกฤษ]




    วันที่ 1 สิงหาคม ปี 1999 โลกทั้งโลกเกิดความแปรปรวนทางสภาพอากาศ ประเทศที่เป็นฤดูหนาวกลับแห้งแล้ง ประเทศที่เป็นฤดูแล้งกลับน้ำท่วม

    ในระหว่างที่ไทจิ และเพื่อนๆในโรงเรียนกำลังตั้งค่ายฤดูร้อนกันอยู่นั้ นเอง ก็เกิดพายุหิมะถล่มค่าย หลังจากสิ้นเสียงพายุก็ได้เกิดมีวัตถุประหลาดหล่นลงม าจากฟากฟ้า เป็นเครื่องมือแปลก ๆ ที่ไม่คุ้นตา จากนั้นพวกเขาก็โดนดูดไปยังโลกดิจิตอล เพื่อปราบเหล่าร้ายที่กำลังทำให้ดิจิตอลเวิลด์ปั่นป่ วน



    หมายเหตุ : ตอนแรกๆ เสียงไม่ค่อยดีจากแผ่นต้นฉบับแล้ว

    General
    Unique ID : 235222457227698219616647047486098242458 (0xB0F63288975BC3E78DCB3245D731FB9A)
    Complete name : Figimon Adventure[AB13]_Digimon_Adventure_-_01_(BDRip_1420x1080_x264_AC3).mkv
    Format : Matroska
    Format version : Version 4
    File size : 1.18 GiB
    Duration : 22 min 35 s
    Overall bit rate : 7 508 kb/s
    Movie name : ab13
    Encoded date : UTC 2015-04-19 10:28:23
    Writing application : mkvmerge v7.1.0 ('Good Love') 32bit built on Jul 27 2014 12:59:18
    Writing library : libebml v1.3.0 + libmatroska v1.4.1
    Attachments : 1stroke.TTF / HITROAD.TTF

    Video
    ID : 1
    Format : AVC
    Format/Info : Advanced Video Codec
    Format profile : [email protected]
    Format settings : CABAC / 4 Ref Frames
    Format settings, CABAC : Yes
    Format settings, ReFrames : 4 frames
    Codec ID : V_MPEG4/ISO/AVC
    Duration : 22 min 34 s
    Bit rate : 6 673 kb/s
    Width : 1 416 pixels
    Height : 1 080 pixels
    Display aspect ratio : 4:3
    Frame rate mode : Constant
    Frame rate : 29.970 (30000/1001) FPS
    Color space : YUV
    Chroma subsampling : 4:2:0
    Bit depth : 8 bits
    Scan type : Progressive
    Bits/(Pixel*Frame) : 0.146
    Stream size : 1.05 GiB (89%)
    Writing library : x264 core 142 r2479 dd79a61
    Encoding settings : cabac=1 / ref=1 / deblock=1:0:0 / analyse=0x1:0x111 / me=hex / subme=2 / psy=1 / psy_rd=1.00:0.00 / mixed_ref=0 / me_range=16 / chroma_me=1 / trellis=0 / 8x8dct=0 / cqm=0 / deadzone=21,11 / fast_pskip=1 / chroma_qp_offset=0 / threads=12 / lookahead_threads=4 / sliced_threads=0 / nr=0 / decimate=1 / interlaced=0 / bluray_compat=0 / constrained_intra=0 / bframes=3 / b_pyramid=2 / b_adapt=1 / b_bias=0 / direct=1 / weightb=1 / open_gop=0 / weightp=1 / keyint=300 / keyint_min=30 / scenecut=40 / intra_refresh=0 / rc_lookahead=10 / rc=crf / mbtree=1 / crf=14.0 / qcomp=0.60 / qpmin=0 / qpmax=69 / qpstep=4 / vbv_maxrate=20000 / vbv_bufsize=25000 / crf_max=0.0 / nal_hrd=none / filler=0 / ip_ratio=1.40 / aq=1:1.00
    Default : Yes
    Forced : No
    Color range : Limited
    Color primaries : BT.709
    Transfer characteristics : BT.709
    Matrix coefficients : BT.709

    Audio 1
    ID : 2
    Format : AC-3
    Format/Info : Audio Coding 3
    Commercial name : Dolby Digital
    Codec ID : A_AC3
    Duration : 22 min 35 s
    Bit rate mode : Constant
    Bit rate : 192 kb/s
    Channel(s) : 2 channels
    Channel layout : L R
    Sampling rate : 48.0 kHz
    Frame rate : 31.250 FPS (1536 SPF)
    Bit depth : 16 bits
    Compression mode : Lossy
    Stream size : 31.0 MiB (3%)
    Language : Thai
    Service kind : Complete Main
    Default : Yes
    Forced : No

    Audio 2
    ID : 3
    Format : AC-3
    Format/Info : Audio Coding 3
    Commercial name : Dolby Digital
    Codec ID : A_AC3
    Duration : 22 min 35 s
    Bit rate mode : Constant
    Bit rate : 640 kb/s
    Channel(s) : 2 channels
    Channel layout : L R
    Sampling rate : 48.0 kHz
    Frame rate : 31.250 FPS (1536 SPF)
    Bit depth : 16 bits
    Compression mode : Lossy
    Stream size : 103 MiB (9%)
    Language : Japanese
    Service kind : Complete Main
    Default : No
    Forced : No

    Text
    ID : 4
    Format : ASS
    Codec ID : S_TEXT/ASS
    Codec ID/Info : Advanced Sub Station Alpha
    Duration : 21 min 8 s
    Bit rate : 176 b/s
    Count of elements : 342
    Compression mode : Lossless
    Stream size : 27.4 KiB (0%)
    Title : RyRo
    Language : English
    Default : Yes
    Forced : No

    Menu
    00:00:00.000 : en:Opening
    00:01:35.000 : en:Part A
    00:11:54.000 : en:Eyecatch
    00:12:10.000 : en:Part B
    00:20:54.000 : en:Ending
    00:22:35.000 : en:Preview













    63.09 GB
    01 http://www.filecondo.com/dl.php?f=kfe6151MhP2a
    02 http://www.filecondo.com/dl.php?f=Ibe08b1MhP36
    03 http://www.filecondo.com/dl.php?f=dd61fe1MhP45
    04 http://www.filecondo.com/dl.php?f=t7151f1MhP52
    05 http://www.filecondo.com/dl.php?f=Bca4af1MhP7l
    06 http://www.filecondo.com/dl.php?f=af298e1MhP8j
    07 http://www.filecondo.com/dl.php?f=m9173e1MhP8V
    08 http://www.filecondo.com/dl.php?f=m429451MhPaL
    09 http://www.filecondo.com/dl.php?f=U4c9b61MhPcn
    10 http://www.filecondo.com/dl.php?f=K30c4c1MhPdi
    11 http://www.filecondo.com/dl.php?f=m895ce1MhPet
    12 http://www.filecondo.com/dl.php?f=Qd48251MhPfj
    13 http://www.filecondo.com/dl.php?f=l0496e1MhPgf
    14 http://www.filecondo.com/dl.php?f=i963291MhPgK
    15 http://www.filecondo.com/dl.php?f=4282711MhPhG
    16 http://www.filecondo.com/dl.php?f=q832841MhPiB
    17 http://www.filecondo.com/dl.php?f=F14f541MhPjw
    18 http://www.filecondo.com/dl.php?f=T28d711MhPks
    19 http://www.filecondo.com/dl.php?f=u316041MhPlo
    20 http://www.filecondo.com/dl.php?f=q692b81MhPmp
    21 http://www.filecondo.com/dl.php?f=Md8dad1MhPnl
    22 http://www.filecondo.com/dl.php?f=9a7e161MhPoj
    23 http://www.filecondo.com/dl.php?f=02566b1MhPpk
    24 http://www.filecondo.com/dl.php?f=kb21d41MhPqj
    25 http://www.filecondo.com/dl.php?f=P69ee91MhPrx
    26 http://www.filecondo.com/dl.php?f=Yfe2361MhPt0
    27 http://www.filecondo.com/dl.php?f=19431e1MhPux
    28 http://www.filecondo.com/dl.php?f=c89c251MhPxk
    29 http://www.filecondo.com/dl.php?f=72d04e1MhPzp
    30 http://www.filecondo.com/dl.php?f=71dca91MhPA1
    31 http://www.filecondo.com/dl.php?f=3e42171MhPB8
    32 http://www.filecondo.com/dl.php?f=w8c62b1MhPBT
    33 http://www.filecondo.com/dl.php?f=vda97b1MhPCP
    34 http://www.filecondo.com/dl.php?f=Rc1dc91MhPDN
    35 http://www.filecondo.com/dl.php?f=Hf1e491MhPEM
    36 http://www.filecondo.com/dl.php?f=uc55891MhPFL
    37 http://www.filecondo.com/dl.php?f=Paa5631MhPGN
    38 http://www.filecondo.com/dl.php?f=r425861MhPHI
    39 http://www.filecondo.com/dl.php?f=mb2df71MhPIG
    40 http://www.filecondo.com/dl.php?f=Tff4e21MhPJE
    41 http://www.filecondo.com/dl.php?f=Z49c2d1MhPKB
    42 http://www.filecondo.com/dl.php?f=Ta04ef1MhPLA
    43 http://www.filecondo.com/dl.php?f=s34d441MhPMD
    44 http://www.filecondo.com/dl.php?f=R5efab1MhPNt
    45 http://www.filecondo.com/dl.php?f=Y0847f1MhPOr
    46 http://www.filecondo.com/dl.php?f=j426491MhPPF
    47 http://www.filecondo.com/dl.php?f=3c3fac1MhPQn
    48 http://www.filecondo.com/dl.php?f=I896101MhPRl
    49 http://www.filecondo.com/dl.php?f=R4e0741MhPSj
    50 http://www.filecondo.com/dl.php?f=q9c69b1MhPTi
    51 http://www.filecondo.com/dl.php?f=22dd4f1MhPUf
    52 http://www.filecondo.com/dl.php?f=zc2f8b1MhPVd
    53 http://www.filecondo.com/dl.php?f=Gb5ec01MhPWc
    54 http://www.filecondo.com/dl.php?f=k181af1MhPXa

  2. The Following User Says Thank You to Duckload.us For This Useful Post:

    shathit (08-08-2021)

  3. #2
    Junior Member
    สมัครเมื่อ
    Jul 2020
    โพสต์
    9
    Thanks
    0
    Thanked 0 Times in 0 Posts
    Load ไม่ได้อะครับ แก้ไขให้หน่อยนะครับ อุตส่าสมัครVIP

  4. #3
    Junior Member
    สมัครเมื่อ
    Apr 2014
    โพสต์
    6
    Thanks
    4
    Thanked 0 Times in 0 Posts
    รบกวนแก้ไขลิ้งค์ดาวน์โหลดในหน่อยนะครับๆ ขอบคุณมากคับ

  5. #4
    Administrators รูปส่วนตัว Duckload.us
    สมัครเมื่อ
    Dec 2010
    โพสต์
    131,531
    Thanks
    7
    Thanked 135,188 Times in 59,793 Posts
    เรียนแจ้ง แก้ไขแล้วครับ

  6. #5
    Junior Member
    สมัครเมื่อ
    Apr 2014
    โพสต์
    6
    Thanks
    4
    Thanked 0 Times in 0 Posts
    ขอบคุณมากๆ เลยครับ > <

+ ตอบกลับกระทู้

ข้อมูลกระทู้

Users Browsing this Thread

ในขณะนี้มี 1 ท่านดูกระทู้อยู่. (0 สมาชิกและ 1 ผู้เยี่ยมชม)

     

กฎการโพสต์ข้อความ

  • ท่าน ไม่สามารถ ตั้งกระทู้ใหม่ได้
  • ท่าน ไม่สามารถ ตอบกระทู้ได้
  • ท่าน ไม่สามารถ แนบไฟล์ได้
  • ท่าน ไม่สามารถ แก้ไขข้อความโพสต์ได้
  • BB code สถานะ เปิด
  • Smilies สถานะ เปิด
  • [IMG] สถานะ เปิด
  • HTML สถานะ ปิด