+ ตอบกลับกระทู้
สรุปผลการค้นหา 1 ถึง 2 จากทั้งหมด 2
  1. #1
    Administrators รูปส่วนตัว Duckload.us
    สมัครเมื่อ
    Dec 2010
    โพสต์
    108,513
    Thanks
    7
    Thanked 113,465 Times in 52,349 Posts

    Lightbulb [จีน]-The Eternal Love : ท่านอ๋อง เมื่อไรท่านจะหย่ากับข้า Season 1-2 [เสียงพากย์จีน] [บรรยายไทย] [ซับไทย Master From WeTV + ซับ SRT , PGS คมชัด]-HDTV.AC-3.1080p. [From HD-TV]-[Soundtrack บรรยายไทย]



    Quote:



    Quote:
    กรุณาอ่านก่อนโหลด

    ภาค 1 มีซับ SRT + PGS และมีซับจีนฝัง ผมลองพยายามหาไฟล์ที่ไม่มีซับฝังจากเว็บนอกหลายๆ เว็บแล้วแต่ผมหาไม่ได้จริงๆ ครับ (เพราะขนาดไฟล์ต้นฉบับจาก WeTV เองก็มีซับจีนฝังติดมาด้วย)

    ภาค 2 ตอนที่ 1 มีซับไทยฝังมาครับตามต้นฉบับจาก WeTV แต่ตอนที่เหลือเป็นซับไทย SRT + PGS ครับ




    Quote:
    ท่านอ๋องเมื่อไรท่านจะหย่ากับข้า ภาค 1

    ผู้กำกับ: หยวนเต๋อ
    นักแสดง: สิงเจาหลิน เหลียงเจี๋ย หวังรุ่ยชาง จงฉี ซุนอี้หมิง หวังห้าวเกอ ซินรุ่ยฉี หูชุนโหย่ว

    เรื่องท่านอ๋องเมื่อไรจะหย่ากับข้า ปรับบทมาจากนิยายที่ได้ความนิยมสูงเรื่อง เป้าเสี้ยวฉ่งเฟย: เหย่หว่อเติ่งหนี่ซิวชี กล่าวถึงเรื่องคนสองบุคลิก ชวี่ถางเอ๋อ ลูกสาวของขุนนางใหญ่ นางได้พบกับม่อเหลียนเฉิน องค์ชายแปดของเมืองตงเยว่ แรกเริ่มทั้งสองต่างไม่ไว้วางใจต่อกัน แต่เมื่อต้องช่วยกันสืบคดี ทั้งสองต้องช่วยเหลือกัน จึงเริ่มเชื่อใจละรักกันในที่สุด การออกแบบตัวละครของนางเอกที่เป็นคนสองบุคลิก (แสดงโดย เหลียงเจี๋ย) และพระเอกผู้ฉลาดเฉลียว มากความสามารถ (แสดงโดย สิ๋งเส้าหลิน) เคมีที่เข้ากันของทั้งคู่ทำให้เรื่องน่าติดตาม ความรักความแค้นที่เต็มเปี่ยมได้ด้วยกลิ่นอายของสองว ัฒนธรรม พร้อมทั้งศึกแย่งชิงบัลลังก์ในวัง ความรักอันหวานซึ้งระหว่างเจ้านายและลูกน้องผู้ภักดี จึงเกิดขึ้น โปรดติดตามรับชมกัน


    ท่านอ๋องเมื่อไรท่านจะหย่ากับข้า ภาค 2

    ผู้กำกับ: อู๋เฉียง
    นักแสดง: สิงเจาหลิน เหลียงเจี๋ย หวังรุ่ยชาง จงฉี ซุนอี้หมิง เฉินโย่วเหวย หวังห้าวเกอ

    โม่เหลียนเฉิงได้กลับไปที่แคว้นตงเยว่กั๋ว บ้านเมืองที่เต็มไปด้วยอันตรายอีกครั้ง แต่กลับคาดคิดไม่ถึงว่า จะได้เจอกับตัวเองในอดีต——จึงมี“คุณชายแปดโม่เหลียนเ ฉิง”ด้วยกันถึง2คน อีกอย่างคุณชายแปดก็ไม่สามารถหยุดยั้งความรักที่มีต่ อคุณหนูชวีเสี่ยวถานได้ คุณชายแปดเลยเลื่อนขั้นกลายมาเป็น”ศัตรูหมายเลขหนึ่ง ”ของโม่อี้ฮว๋าย โม่เหลียนเฉิงได้ใช้ความรักหวานละมุนปลุกความทรงจำที ่หายไปของคุรหนูชวีเสี่ยวถาน แต่ด้วยความที่เต็มไปด้วยวิกฤติอันตรายทำให้ทั้งสองค นหวาดระแวงกัน ศึกเพื่อปกป้องคนที่ตัวเองรักกำลังจะเริ่มขึ้น!




    Quote:
    *ดู INFO Report คลิ๊ก!*

    Format : Matroska
    Format version : Version 4
    File size : 613 MiB
    Duration : 36 min 39 s
    Overall bit rate : 2 336 kb/s
    Movie name : The.Eternal.Love.S02E02.1080p.HDTV.x264_by SkiesIT
    Encoded date : UTC 2019-05-14 09:39:48
    Writing application : mkvmerge v33.1.0 ('Primrose') 64-bit
    Writing library : libebml v1.3.7 + libmatroska v1.5.0

    Video
    ID : 1
    Format : AVC
    Format/Info : Advanced Video Codec
    Format profile : [email protected]
    Format settings : CABAC / 4 Ref Frames
    Format settings, CABAC : Yes
    Format settings, RefFrames : 4 frames
    Codec ID : V_MPEG4/ISO/AVC
    Duration : 36 min 39 s
    Bit rate : 1 869 kb/s
    Width : 1 920 pixels
    Height : 1 080 pixels
    Display aspect ratio : 16:9
    Frame rate mode : Constant
    Frame rate : 25.000 FPS
    Color space : YUV
    Chroma subsampling : 4:2:0
    Bit depth : 8 bits
    Scan type : Progressive
    Bits/(Pixel*Frame) : 0.036
    Stream size : 490 MiB (80%)
    Title : The.Eternal.Love.S02E02.1080p.HDTV.x264_by SkiesIT
    Default : Yes
    Forced : No
    Color range : Limited
    Color primaries : BT.709
    Transfer characteristics : BT.709
    Matrix coefficients : BT.709

    Audio
    ID : 2
    Format : AC-3
    Format/Info : Audio Coding 3
    Commercial name : Dolby Digital
    Codec ID : A_AC3
    Duration : 36 min 39 s
    Bit rate mode : Constant
    Bit rate : 448 kb/s
    Channel(s) : 6 channels
    Channel layout : L R C LFE Ls Rs
    Sampling rate : 48.0 kHz
    Frame rate : 31.250 FPS (1536 SPF)
    Bit depth : 16 bits
    Compression mode : Lossy
    Stream size : 117 MiB (19%)
    Language : Chinese
    Service kind : Complete Main
    Default : Yes
    Forced : No

    Text #1
    ID : 3
    Format : UTF-8
    Codec ID : S_TEXT/UTF8
    Codec ID/Info : UTF-8 Plain Text
    Duration : 32 min 20 s
    Bit rate : 94 b/s
    Count of elements : 379
    Stream size : 22.4 KiB (0%)
    Title : SRT
    Language : Thai
    Default : No
    Forced : No

    Text #2
    ID : 4
    Format : PGS
    Muxing mode : zlib
    Codec ID : S_HDMV/PGS
    Codec ID/Info : Picture based subtitle format used on BDs/HD-DVDs
    Duration : 32 min 20 s
    Bit rate : 39.6 kb/s
    Count of elements : 758
    Stream size : 9.16 MiB (1%)
    Title : PGS
    Language : Thai
    Default : Yes
    Forced : No



    Quote:









    33.53 GB
    http://www.filecondo.com/dl.php?f=Pb77a71IvzR0 fix

  2. The Following User Says Thank You to Duckload.us For This Useful Post:

    Windy12 (11-17-2019)

  3. #2
    Member
    สมัครเมื่อ
    Jan 2014
    โพสต์
    53
    Thanks
    79
    Thanked 0 Times in 0 Posts
    ขอบคุณมากๆ นะคะ ^^

+ ตอบกลับกระทู้

ข้อมูลกระทู้

Users Browsing this Thread

ในขณะนี้มี 1 ท่านดูกระทู้อยู่. (0 สมาชิกและ 1 ผู้เยี่ยมชม)

     

กฎการโพสต์ข้อความ

  • ท่าน ไม่สามารถ ตั้งกระทู้ใหม่ได้
  • ท่าน ไม่สามารถ ตอบกระทู้ได้
  • ท่าน ไม่สามารถ แนบไฟล์ได้
  • ท่าน ไม่สามารถ แก้ไขข้อความโพสต์ได้
  • BB code สถานะ เปิด
  • Smilies สถานะ เปิด
  • [IMG] สถานะ เปิด
  • HTML สถานะ ปิด