+ ตอบกลับกระทู้
สรุปผลการค้นหา 1 ถึง 3 จากทั้งหมด 3
  1. #1
    Administrators รูปส่วนตัว Duckload.us
    สมัครเมื่อ
    Dec 2010
    โพสต์
    133,553
    Thanks
    7
    Thanked 137,645 Times in 60,796 Posts

    Question [ฝรั่ง]-[ 4K Ultra HD ] • Captain Marvel (2019) : กัปตันมาร์เวล • [พากย์ไทย มาสเตอร์ + เสียงอังกฤษ TrueHD.7.1.Atmos ] • [บรรยายไทย + อังกฤษ] • [เสียงไทย + ซับไทย Master From iTunes +ซับ PGS คมชัด]• 2019.2160p.BluRay.REMUX.HEVC.DTS-HD.MA.TrueHD.7.1



    เรื่องราวของของแครอล แดนเวอร์ส หรือ กัปตัน มาร์เวล ฮีโร่ที่ทรงพลังที่สุดในจักรวาลมาร์เวล
    กับการปกป้องโลกจากสงครามระดับจักรวาลระหว่างเอเลี่ย น 2 เผ่าพันธุ์ มาร์เวล สตูดิโอส์ จะพาเราไปพบกับ
    การผจญภัยที่คุณไม่เคยเห็นมาก่อนในประวัติศาสตร์ของจ ักรวาลภาพยนตร์มาร์เวล....!!!!!!


    Code:
    Format                                   : Matroska
    Format version                           : Version 4
    File size                                : 57.3 GiB
    Duration                                 : 2 h 4 min
    Overall bit rate mode                    : Variable
    Overall bit rate                         : 66.1 Mb/s
    Movie name                               : Captain.Marvel.2019.2160p.BluRay.REMUX.HEVC.DTS-HD.MA.TrueHD.7.1.Atmos-FGT
    Encoded date                             : UTC 2019-06-03 16:59:00
    Writing application                      : mkvmerge v33.0.0 ('A Little Bit of Madness') 64-bit
    Writing library                          : libebml v1.3.7 + libmatroska v1.5.0
    Cover                                    : Yes
    Attachments                              : small_cover_land.jpg / cover.jpg / cover_land.jpg / small_cover.jpg / cover
    
    Video
    ID                                       : 1
    Format                                   : HEVC
    Format/Info                              : High Efficiency Video Coding
    Commercial name                          : HDR10
    Format profile                           : Main [email protected]@High
    Codec ID                                 : V_MPEGH/ISO/HEVC
    Duration                                 : 2 h 3 min
    Bit rate                                 : 47.0 Mb/s
    Width                                    : 3 840 pixels
    Height                                   : 2 160 pixels
    Display aspect ratio                     : 16:9
    Frame rate mode                          : Constant
    Frame rate                               : 23.976 (24000/1001) FPS
    Color space                              : YUV
    Chroma subsampling                       : 4:2:0 (Type 2)
    Bit depth                                : 10 bits
    Bits/(Pixel*Frame)                       : 0.236
    Stream size                              : 40.6 GiB (71%)
    Title                                    : Captain.Marvel.2019.2160p.BluRay.REMUX.HEVC.DTS-HD.MA.TrueHD.7.1.Atmos-FGT
    Writing library                          : ATEME Titan File 3.9.0 (4.9.0.0)        
    Language                                 : English
    Default                                  : No
    Forced                                   : No
    Color range                              : Limited
    Color primaries                          : BT.2020
    Transfer characteristics                 : PQ
    Matrix coefficients                      : BT.2020 non-constant
    Mastering display color primaries        : Display P3
    Mastering display luminance              : min: 0.0020 cd/m2, max: 1000 cd/m2
    
    Audio #1
    ID                                       : 2
    Format                                   : MLP FBA 16-ch
    Format/Info                              : Meridian Lossless Packing FBA with 16-channel presentation
    Commercial name                          : Dolby TrueHD with Dolby Atmos
    Codec ID                                 : A_TRUEHD
    Duration                                 : 2 h 3 min
    Bit rate mode                            : Variable
    Bit rate                                 : 4 613 kb/s
    Maximum bit rate                         : 7 317 kb/s
    Channel(s)                               : 8 channels
    Channel layout                           : L R C LFE Ls Rs Lb Rb
    Sampling rate                            : 48.0 kHz
    Frame rate                               : 1 200.000 FPS (40 SPF)
    Compression mode                         : Lossless
    Stream size                              : 3.99 GiB (7%)
    Title                                    : Captain.Marvel.2019.2160p.BluRay.REMUX.HEVC.DTS-HD.MA.TrueHD.7.1.Atmos-FGT
    Language                                 : English
    Default                                  : Yes
    Forced                                   : No
    Number of dynamic objects                : 13
    Bed channel count                        : 1 channel
    Bed channel configuration                : LFE
    
    Audio #2
    ID                                       : 3
    Format                                   : DTS XLL
    Format/Info                              : Digital Theater Systems
    Commercial name                          : DTS-HD Master Audio
    Codec ID                                 : A_DTS
    Duration                                 : 2 h 3 min
    Bit rate mode                            : Variable
    Bit rate                                 : 4 100 kb/s
    Channel(s)                               : 8 channels
    Channel layout                           : C L R LFE Lb Rb Lss Rss
    Sampling rate                            : 48.0 kHz
    Frame rate                               : 93.750 FPS (512 SPF)
    Bit depth                                : 24 bits
    Compression mode                         : Lossless
    Stream size                              : 3.54 GiB (6%)
    Title                                    : Captain.Marvel.2019.2160p.BluRay.REMUX.HEVC.DTS-HD.MA.TrueHD.7.1.Atmos-FGT
    Language                                 : English
    Default                                  : No
    Forced                                   : No
    
    Audio #3
    ID                                       : 4
    Format                                   : AC-3
    Format/Info                              : Audio Coding 3
    Commercial name                          : Dolby Digital
    Codec ID                                 : A_AC3
    Duration                                 : 2 h 3 min
    Bit rate mode                            : Constant
    Bit rate                                 : 640 kb/s
    Channel(s)                               : 6 channels
    Channel layout                           : L R C LFE Ls Rs
    Sampling rate                            : 48.0 kHz
    Frame rate                               : 31.250 FPS (1536 SPF)
    Bit depth                                : 16 bits
    Compression mode                         : Lossy
    Stream size                              : 566 MiB (1%)
    Title                                    : Captain.Marvel.2019.2160p.BluRay.REMUX.HEVC.DTS-HD.MA.TrueHD.7.1.Atmos-FGT
    Language                                 : English
    Service kind                             : Complete Main
    Default                                  : No
    Forced                                   : No
    
    Audio #4
    ID                                       : 5
    Format                                   : AC-3
    Format/Info                              : Audio Coding 3
    Commercial name                          : Dolby Digital
    Codec ID                                 : A_AC3
    Duration                                 : 2 h 3 min
    Bit rate mode                            : Constant
    Bit rate                                 : 320 kb/s
    Channel(s)                               : 2 channels
    Channel layout                           : L R
    Sampling rate                            : 48.0 kHz
    Frame rate                               : 31.250 FPS (1536 SPF)
    Bit depth                                : 16 bits
    Compression mode                         : Lossy
    Stream size                              : 283 MiB (0%)
    Title                                    : Captain.Marvel.2019.2160p.BluRay.REMUX.HEVC.DTS-HD.MA.TrueHD.7.1.Atmos-FGT
    Language                                 : English
    Service kind                             : Complete Main
    Default                                  : No
    Forced                                   : No
    
    Audio #5
    ID                                       : 6
    Format                                   : AC-3
    Format/Info                              : Audio Coding 3
    Commercial name                          : Dolby Digital
    Codec ID                                 : A_AC3
    Duration                                 : 2 h 3 min
    Bit rate mode                            : Constant
    Bit rate                                 : 640 kb/s
    Channel(s)                               : 6 channels
    Channel layout                           : L R C LFE Ls Rs
    Sampling rate                            : 48.0 kHz
    Frame rate                               : 31.250 FPS (1536 SPF)
    Bit depth                                : 16 bits
    Compression mode                         : Lossy
    Stream size                              : 566 MiB (1%)
    Title                                    : Captain.Marvel.2019.2160p.BluRay.REMUX.HEVC.DTS-HD.MA.TrueHD.7.1.Atmos-FGT
    Language                                 : French
    Service kind                             : Complete Main
    Default                                  : No
    Forced                                   : No
    
    Audio #6
    ID                                       : 7
    Format                                   : E-AC-3
    Format/Info                              : Enhanced AC-3
    Commercial name                          : Dolby Digital Plus
    Format profile                           : Blu-ray Disc
    Codec ID                                 : A_EAC3
    Duration                                 : 2 h 3 min
    Bit rate mode                            : Constant
    Bit rate                                 : 1 024 kb/s
    Channel(s)                               : 8 channels
    Channel layout                           : L R C LFE Ls Rs Lb Rb
    Sampling rate                            : 48.0 kHz
    Frame rate                               : 31.250 FPS (1536 SPF)
    Compression mode                         : Lossy
    Stream size                              : 906 MiB (2%)
    Title                                    : Captain.Marvel.2019.2160p.BluRay.REMUX.HEVC.DTS-HD.MA.TrueHD.7.1.Atmos-FGT
    Language                                 : French
    Service kind                             : Complete Main
    Default                                  : No
    Forced                                   : No
    
    Audio #7
    ID                                       : 8
    Format                                   : AC-3
    Format/Info                              : Audio Coding 3
    Commercial name                          : Dolby Digital
    Codec ID                                 : A_AC3
    Duration                                 : 2 h 3 min
    Bit rate mode                            : Constant
    Bit rate                                 : 576 kb/s
    Channel(s)                               : 6 channels
    Channel layout                           : L R C LFE Ls Rs
    Sampling rate                            : 48.0 kHz
    Frame rate                               : 31.250 FPS (1536 SPF)
    Bit depth                                : 16 bits
    Compression mode                         : Lossy
    Stream size                              : 510 MiB (1%)
    Title                                    : Captain.Marvel.2019.2160p.BluRay.REMUX.HEVC.DTS-HD.MA.TrueHD.7.1.Atmos-FGT
    Language                                 : French
    Service kind                             : Complete Main
    Default                                  : No
    Forced                                   : No
    
    Audio #8
    ID                                       : 9
    Format                                   : E-AC-3
    Format/Info                              : Enhanced AC-3
    Commercial name                          : Dolby Digital Plus
    Format profile                           : Blu-ray Disc
    Codec ID                                 : A_EAC3
    Duration                                 : 2 h 3 min
    Bit rate mode                            : Constant
    Bit rate                                 : 1 024 kb/s
    Channel(s)                               : 8 channels
    Channel layout                           : L R C LFE Ls Rs Lb Rb
    Sampling rate                            : 48.0 kHz
    Frame rate                               : 31.250 FPS (1536 SPF)
    Compression mode                         : Lossy
    Stream size                              : 906 MiB (2%)
    Title                                    : Captain.Marvel.2019.2160p.BluRay.REMUX.HEVC.DTS-HD.MA.TrueHD.7.1.Atmos-FGT
    Language                                 : Spanish
    Service kind                             : Complete Main
    Default                                  : No
    Forced                                   : No
    
    Audio #9
    ID                                       : 10
    Format                                   : AC-3
    Format/Info                              : Audio Coding 3
    Commercial name                          : Dolby Digital
    Codec ID                                 : A_AC3
    Duration                                 : 2 h 3 min
    Bit rate mode                            : Constant
    Bit rate                                 : 576 kb/s
    Channel(s)                               : 6 channels
    Channel layout                           : L R C LFE Ls Rs
    Sampling rate                            : 48.0 kHz
    Frame rate                               : 31.250 FPS (1536 SPF)
    Bit depth                                : 16 bits
    Compression mode                         : Lossy
    Stream size                              : 510 MiB (1%)
    Title                                    : Captain.Marvel.2019.2160p.BluRay.REMUX.HEVC.DTS-HD.MA.TrueHD.7.1.Atmos-FGT
    Language                                 : Spanish
    Service kind                             : Complete Main
    Default                                  : No
    Forced                                   : No
    
    Audio #10
    ID                                       : 11
    Format                                   : E-AC-3
    Format/Info                              : Enhanced AC-3
    Commercial name                          : Dolby Digital Plus
    Format profile                           : Blu-ray Disc
    Codec ID                                 : A_EAC3
    Duration                                 : 2 h 3 min
    Bit rate mode                            : Constant
    Bit rate                                 : 1 024 kb/s
    Channel(s)                               : 8 channels
    Channel layout                           : L R C LFE Ls Rs Lb Rb
    Sampling rate                            : 48.0 kHz
    Frame rate                               : 31.250 FPS (1536 SPF)
    Compression mode                         : Lossy
    Stream size                              : 906 MiB (2%)
    Title                                    : Captain.Marvel.2019.2160p.BluRay.REMUX.HEVC.DTS-HD.MA.TrueHD.7.1.Atmos-FGT
    Language                                 : German
    Service kind                             : Complete Main
    Default                                  : No
    Forced                                   : No
    
    Audio #16
    ID                                       : 37
    Format                                   : AAC LC
    Format/Info                              : Advanced Audio Codec Low Complexity
    Codec ID                                 : A_AAC-2
    Duration                                 : 2 h 3 min
    Bit rate                                 : 126 kb/s
    Channel(s)                               : 2 channels
    Channel layout                           : L R
    Sampling rate                            : 48.0 kHz
    Frame rate                               : 46.875 FPS (1024 SPF)
    Compression mode                         : Lossy
    Stream size                              : 111 MiB (0%)
    Title                                    : Thai Master 2.0
    Language                                 : Thai
    Default                                  : No
    Forced                                   : No
    
    Audio #17
    ID                                       : 38
    Format                                   : AC-3
    Format/Info                              : Audio Coding 3
    Commercial name                          : Dolby Digital
    Codec ID                                 : A_AC3
    Duration                                 : 2 h 3 min
    Bit rate mode                            : Constant
    Bit rate                                 : 640 kb/s
    Channel(s)                               : 6 channels
    Channel layout                           : L R C LFE Ls Rs
    Sampling rate                            : 48.0 kHz
    Frame rate                               : 31.250 FPS (1536 SPF)
    Bit depth                                : 16 bits
    Compression mode                         : Lossy
    Stream size                              : 566 MiB (1%)
    Title                                    : Thai Modify 5.1
    Language                                 : Thai
    Service kind                             : Complete Main
    Default                                  : No
    Forced                                   : No
    
    Text #1
    ID                                       : 17
    Format                                   : UTF-8
    Codec ID                                 : S_TEXT/UTF8
    Codec ID/Info                            : UTF-8 Plain Text
    Duration                                 : 1 h 53 min
    Bit rate                                 : 47 b/s
    Count of elements                        : 1424
    Stream size                              : 39.8 KiB (0%)
    Title                                    : English-SRT
    Language                                 : English
    Default                                  : Yes
    Forced                                   : No
    
    Text #2
    ID                                       : 18
    Format                                   : UTF-8
    Codec ID                                 : S_TEXT/UTF8
    Codec ID/Info                            : UTF-8 Plain Text
    Duration                                 : 2 h 2 min
    Bit rate                                 : 50 b/s
    Count of elements                        : 1668
    Stream size                              : 45.1 KiB (0%)
    Title                                    : English-SDH-SRT
    Language                                 : English
    Default                                  : No
    Forced                                   : No
    
    Text #3
    ID                                       : 19
    Format                                   : PGS
    Muxing mode                              : zlib
    Codec ID                                 : S_HDMV/PGS
    Codec ID/Info                            : Picture based subtitle format used on BDs/HD-DVDs
    Duration                                 : 2 h 2 min
    Bit rate                                 : 32.8 kb/s
    Count of elements                        : 3330
    Stream size                              : 28.7 MiB (0%)
    Title                                    : English-PGS
    Language                                 : English
    Default                                  : No
    Forced                                   : No
    
    Text #21
    ID                                       : 39
    Format                                   : PGS
    Muxing mode                              : zlib
    Codec ID                                 : S_HDMV/PGS
    Codec ID/Info                            : Picture based subtitle format used on BDs/HD-DVDs
    Duration                                 : 2 h 3 min
    Bit rate                                 : 32.3 kb/s
    Count of elements                        : 2648
    Stream size                              : 28.6 MiB (0%)
    Title                                    : Thai-PGS
    Language                                 : Thai
    Default                                  : No
    Forced                                   : No
    
    Text #22
    ID                                       : 40
    Format                                   : VobSub
    Muxing mode                              : zlib
    Codec ID                                 : S_VOBSUB
    Codec ID/Info                            : Picture based subtitle format used on DVDs
    Duration                                 : 2 h 3 min
    Bit rate                                 : 7 182 b/s
    Count of elements                        : 1323
    Stream size                              : 6.36 MiB (0%)
    Title                                    : Thai-1080P
    Language                                 : Thai
    Default                                  : No
    Forced                                   : No
    
    Text #23
    ID                                       : 41
    Format                                   : PGS
    Muxing mode                              : zlib
    Codec ID                                 : S_HDMV/PGS
    Codec ID/Info                            : Picture based subtitle format used on BDs/HD-DVDs
    Duration                                 : 2 h 3 min
    Bit rate                                 : 32.3 kb/s
    Count of elements                        : 2648
    Stream size                              : 28.6 MiB (0%)
    Title                                    : Thai-PGS-YELLOW
    Language                                 : Thai
    Default                                  : No
    Forced                                   : No
    
    Text #24
    ID                                       : 42
    Format                                   : VobSub
    Muxing mode                              : zlib
    Codec ID                                 : S_VOBSUB
    Codec ID/Info                            : Picture based subtitle format used on DVDs
    Duration                                 : 2 h 3 min
    Bit rate                                 : 7 036 b/s
    Count of elements                        : 1323
    Stream size                              : 6.23 MiB (0%)
    Title                                    : Thai-1080P-YELLOW
    Language                                 : Thai
    Default                                  : No
    Forced                                   : No
    
    Menu
    00:00:00.000                             : en:Chapter 01
    00:06:51.285                             : en:Chapter 02
    00:14:07.012                             : en:Chapter 03
    00:23:17.437                             : en:Chapter 04
    00:29:37.192                             : en:Chapter 05
    00:35:06.938                             : en:Chapter 06
    00:44:07.227                             : en:Chapter 07
    00:50:42.581                             : en:Chapter 08
    00:56:17.791                             : en:Chapter 09
    01:03:01.986                             : en:Chapter 10
    01:11:16.563                             : en:Chapter 11
    01:17:48.330                             : en:Chapter 12
    01:27:02.175                             : en:Chapter 13
    01:33:21.512                             : en:Chapter 14
    01:40:50.669                             : en:Chapter 15
    01:46:23.919                             : en:Chapter 16
    01:52:49.053                             : en:Chapter 17





    Download: cornfile
    http://cornfile.com/r9twd4hjtfib
    Download: mekafile
    http://www.filecondo.com/dl.php?f=tIef6bbV5U9Q

  2. #2
    Junior Member
    สมัครเมื่อ
    Sep 2018
    โพสต์
    6
    Thanks
    0
    Thanked 0 Times in 0 Posts
    meka โหลดไม่ได้ครับ

  3. #3
    Senior Member
    สมัครเมื่อ
    Jul 2012
    โพสต์
    7,810
    Thanks
    0
    Thanked 0 Times in 0 Posts
    ขอบคุณมากจ้า

+ ตอบกลับกระทู้

ข้อมูลกระทู้

Users Browsing this Thread

ในขณะนี้มี 1 ท่านดูกระทู้อยู่. (0 สมาชิกและ 1 ผู้เยี่ยมชม)

     

กฎการโพสต์ข้อความ

  • ท่าน ไม่สามารถ ตั้งกระทู้ใหม่ได้
  • ท่าน ไม่สามารถ ตอบกระทู้ได้
  • ท่าน ไม่สามารถ แนบไฟล์ได้
  • ท่าน ไม่สามารถ แก้ไขข้อความโพสต์ได้
  • BB code สถานะ เปิด
  • Smilies สถานะ เปิด
  • [IMG] สถานะ เปิด
  • HTML สถานะ ปิด