+ ตอบกลับกระทู้
สรุปผลการค้นหา 1 ถึง 2 จากทั้งหมด 2
  1. #1
    Administrators รูปส่วนตัว Duckload.us
    สมัครเมื่อ
    Dec 2010
    โพสต์
    111,262
    Thanks
    7
    Thanked 116,710 Times in 53,141 Posts

    Question [ฝรั่ง]-[4K HDR] Snow White and the Huntsman (2012) EXTENDED สโนว์ไวท์กับพรานป่า ในศึกมหัศจรรย์ [ฉบับเต็ม] [Modified From Master] พากย์ไทย AC3 5.1 - อังกฤษ DTS-HD MA 7.1 ซับไทย - อังกฤษ PGS คมชัด-4K Blu-ray.AC-3.2160p. [Modified]-[พากย์ไทย บรรยายไทย]




    Snow White and the Huntsman



    Rating: 6.1/10 Year: 2012 Genres: Action / Adventure / Drama / Fantasy Runtime: 127 min Language: English Director: Rupert Sanders Writers: Evan Daugherty / John Lee Hancock / Hossein Amini Cast: Kristen Stewart / Chris Hemsworth / Charlize Theronโ€ฆ Plot:

    Snow White, imprisoned daughter of the late king, escapes just as the Magic Mirror declares her the source of the Evil Queen's immortality. The Queen sends her men, led by a local huntsman, to bring her back. But upon her capture, the huntsman finds he's being played and turns against the Queen's men, saving Snow White in the process. Meanwhile, Snow's childhood friend, William, learns that she is alive and sets off to save her. Written by G.C. Bendixen









    นางเอกสาวสุดฮอต คริสเตน สจ๊วต (จาก ทไวไลท์) มานำแสดง ดัดแปลงนิยายที่ทั่วโลกรู้จักดี มาเป็นเรื่องราวที่สนุกสนานเข้มข้นขึ้น สโนไวท์ สาวน้อยที่กระจกวิเศษบอกว่าเธอสวยกว่า ราชินีแห่งความชั่วร้าย (แสดงโดย ชาร์ลิซ เธอรอน ดารายอดฝีมือระดับออสการ์) ดังนั้นการตามล่าทำลายล้างเจ้าหญิงสโนไวท์จึงเกิดขึ้ น หลังจากโดนยึดเมืองไป สโนไวท์ก็ได้พบกับนายพรานป่า (แสดงโดย คริส เฮมส์เวิร์ธ จาก ธอร์ เทพเจ้าสายฟ้า) ที่ได้รับคำสั่งให้มาฆ่าเธอ แต่เขากลับมาฝึกให้เธอต่อสู้เพื่อทวงบัลลังก์กลับคืน ส่วนของเจ้าชายหนุ่มรูปงามผู้ตกหลุมรักในความงามและค วามเก่งกาจของสโนไวท์ในเวอร์ชั่นนี้ แสดงโดย แซม คลาฟิน (จาก ไพเรทออฟดิคาริบเบียน: ออน สเตรนเจอร์ ไทด์)

    บทที่สุดสร้างสรรของภาพยนตร์ที่ได้รับแรงบันดาลใจจาก นิยายดังเรื่องนี้ เป็นฝีมือของ โจ รอธ (ผู้อำนวยการสร้าง อลิซ อิน วันเดอร์แลนด์ ที่ทำเงินทะลุ 1 พันล้านเหรียญ)? กำกับโดย รูเพิร์ต แซนเดอร์ส ผู้กำกับรุ่นใหม่ที่ผ่านงานกำกับโฆษณาและงานกำกับศิล ป์ที่คว้ารางวัลมามากมายแล้ว





    General
    Unique ID : 281059412692571210836310770686927496060 (0xD37212EB7B13416AC23376D08DBAE37C)
    Complete name : G:4K UltraHDSnow.White.and.the.Huntsman.2012.EXTENDED.2 160p.UHD.BluRay.HEVC.10bit.HDR.DTS-HD.MA.7.1-PATiPATSnow White and the Huntsman (2012) EXTENDED สโนว์ไวท์กับพรานป่า ในศึกมหัศจรรย์.mkv
    Format : Matroska
    Format version : Version 4 / Version 2
    File size : 19.0 GiB
    Duration : 2 h 11 min
    Overall bit rate : 20.7 Mb/s
    Movie name : Snow.White.and.the.Huntsman.2012.EXTENDED.2160p.UH D.BluRay.HEVC.10bit.HDR.DTS-HD.MA.7.1-PATiPAT
    Encoded date : UTC 2019-07-06 21:03:09
    Writing application : mkvmerge v33.1.0 ('Primrose') 64-bit
    Writing library : libebml v1.3.7 + libmatroska v1.5.0 / Lavf57.71.100
    Cover : Yes
    Attachments : cover

    Video
    ID : 1
    Format : HEVC
    Format/Info : High Efficiency Video Coding
    Format profile : Main [email protected]@High
    Codec ID : V_MPEGH/ISO/HEVC
    Duration : 2 h 11 min
    Bit rate : 14.2 Mb/s
    Width : 3 840 pixels
    Height : 1 632 pixels
    Display aspect ratio : 2.35:1
    Frame rate mode : Constant
    Frame rate : 23.976 (24000/1001) FPS
    Color space : YUV
    Chroma subsampling : 4:2:0 (Type 2)
    Bit depth : 10 bits
    Bits/(Pixel*Frame) : 0.095
    Stream size : 13.0 GiB (69%)
    Writing library : x265 2.5+4-b4a5bcfe29c7:[Windows][GCC 4.9.3][64 bit] 10bit
    Encoding settings : cpuid=1173503 / frame-threads=16 / numa-pools=24,24,24,24 / wpp / no-pmode / no-pme / no-psnr / no-ssim / log-level=2 / input-csp=1 / input-res=3840x1632 / interlace=0 / total-frames=0 / level-idc=51 / high-tier=1 / uhd-bd=0 / ref=3 / no-allow-non-conformance / repeat-headers / annexb / aud / hrd / info / hash=0 / no-temporal-layers / no-open-gop / min-keyint=1 / keyint=24 / bframes=4 / b-adapt=2 / b-pyramid / bframe-bias=0 / rc-lookahead=25 / lookahead-slices=4 / scenecut=40 / no-intra-refresh / ctu=64 / min-cu-size=8 / no-rect / no-amp / max-tu-size=32 / tu-inter-depth=1 / tu-intra-depth=1 / limit-tu=0 / rdoq-level=0 / dynamic-rd=0.00 / no-ssim-rd / signh-i-d-e / no-tskip / nr-intra=0 / nr-inter=0 / no-constrained-intra / strong-intra-smoothing / max-merge=2 / limit-refs=3 / no-limit-modes / me=1 / subme=2 / merange=57 / temporal-mvp / weightp / no-weightb / no-analyze-src-pics / deblock=0:0 / no-sao / no-sao-non-deblock / rd=3 / no-early-skip / rskip / no-fast-intra / no-tskip-fast / no-cu-lossless / no-b-intra / rdpenalty=0 / psy-rd=2.00 / psy-rdoq=0.00 / no-rd-refine / analysis-reuse-mode=0 / no-lossless / cbqpoffs=0 / crqpoffs=0 / rc=crf / crf=16.0 / qcomp=0.60 / qpstep=4 / stats-write=0 / stats-read=0 / vbv-maxrate=160000 / vbv-bufsize=160000 / vbv-init=0.9 / crf-max=0.0 / crf-min=0.0 / ipratio=1.40 / pbratio=1.30 / aq-mode=1 / aq-strength=1.00 / cutree / zone-count=0 / no-strict-cbr / qg-size=32 / no-rc-grain / qpmax=69 / qpmin=0 / no-const-vbv / sar=1 / overscan=0 / videoformat=5 / range=0 / colorprim=9 / transfer=16 / colormatrix=9 / chromaloc=1 / chromaloc-top=2 / chromaloc-bottom=2 / display-window=0 / master-display=G(13250,34500)B(7500,3000)R(34000,16000)WP (15635,16450)L(10000000,50) / max-cll=1000,400 / min-luma=0 / max-luma=1023 / log2-max-poc-lsb=8 / vui-timing-info / vui-hrd-info / slices=1 / opt-qp-pps / opt-ref-list-length-pps / no-multi-pass-opt-rps / scenecut-bias=0.05 / no-opt-cu-delta-qp / no-aq-motion / hdr / hdr-opt / no-dhdr10-opt / analysis-reuse-level=5 / scale-factor=0 / refine-intra=0 / refine-inter=0 / refine-mv=0 / no-limit-sao / ctu-info=0
    Default : Yes
    Forced : No
    Color range : Limited
    Color primaries : BT.2020
    Transfer characteristics : SMPTE ST 2084
    Matrix coefficients : BT.2020 non-constant
    Mastering display color primar : R: x=0.680000 y=0.320000, G: x=0.265000 y=0.690000, B: x=0.150000 y=0.060000, White point: x=0.312700 y=0.329000
    Mastering display luminance : min: 0.0050 cd/m2, max: 1000.0000 cd/m2
    Maximum Content Light Level : 1000 cd/m2
    Maximum Frame-Average Light Le : 400 cd/m2

    Audio #1
    ID : 2
    Format : DTS
    Format/Info : Digital Theater Systems
    Format profile : X / MA / Core
    Mode : 16
    Format settings, Endianness : Big
    Codec ID : A_DTS
    Duration : 2 h 11 min
    Bit rate mode : Variable / Variable / Constant
    Bit rate : 3 840 kb/s / 3 840 kb/s / 1 509 kb/s
    Channel(s) : Object Based / 8 channels / 6 channels
    Channel positions : Object Based / Front: L C R, Side: L R, Back: L R, LFE / Front: L C R, Side: L R, LFE
    Sampling rate : / 48.0 kHz / 48.0 kHz
    Frame rate : 93.750 FPS (512 SPF)
    Bit depth : / 24 bits / 24 bits
    Compression mode : / Lossless / Lossy
    Stream size : 3.50 GiB (18%)
    Language : English
    Default : No
    Forced : No

    Audio #2
    ID : 3
    Format : DTS
    Format/Info : Digital Theater Systems
    Mode : 16
    Format settings, Endianness : Big
    Codec ID : A_DTS
    Duration : 2 h 11 min
    Bit rate mode : Constant
    Bit rate : 1 509 kb/s
    Channel(s) : 6 channels
    Channel positions : Front: L C R, Side: L R, LFE
    Sampling rate : 48.0 kHz
    Frame rate : 93.750 FPS (512 SPF)
    Bit depth : 24 bits
    Compression mode : Lossy
    Delay relative to video : 210 ms
    Stream size : 1.39 GiB (7%)
    Language : English
    Default : No
    Forced : No

    Audio #3
    ID : 4
    Format : AC-3
    Format/Info : Audio Coding 3
    Format settings, Endianness : Big
    Codec ID : A_AC3
    Duration : 2 h 11 min
    Bit rate mode : Constant
    Bit rate : 640 kb/s
    Channel(s) : 6 channels
    Channel positions : Front: L C R, Side: L R, LFE
    Sampling rate : 48.0 kHz
    Frame rate : 31.250 FPS (1536 SPF)
    Bit depth : 16 bits
    Compression mode : Lossy
    Stream size : 602 MiB (3%)
    Language : English
    Service kind : Complete Main
    Default : No
    Forced : No

    Audio #4
    ID : 5
    Format : AC-3
    Format/Info : Audio Coding 3
    Format settings, Endianness : Big
    Codec ID : A_AC3
    Duration : 2 h 11 min
    Bit rate mode : Constant
    Bit rate : 448 kb/s
    Channel(s) : 6 channels
    Channel positions : Front: L C R, Side: L R, LFE
    Sampling rate : 48.0 kHz
    Frame rate : 31.250 FPS (1536 SPF)
    Bit depth : 16 bits
    Compression mode : Lossy
    Stream size : 421 MiB (2%)
    Language : Thai
    Service kind : Complete Main
    Default : Yes
    Forced : Yes

    Text #1
    ID : 6
    Format : UTF-8
    Codec ID : S_TEXT/UTF8
    Codec ID/Info : UTF-8 Plain Text
    Duration : 2 h 10 min
    Bit rate : 27 b/s
    Count of elements : 1050
    Stream size : 25.8 KiB (0%)
    Title : English-SRT-Forced
    Language : English
    Default : No
    Forced : No

    Text #2
    ID : 7
    Format : PGS
    Muxing mode : zlib
    Codec ID : S_HDMV/PGS
    Codec ID/Info : Picture based subtitle format used on BDs/HD-DVDs
    Duration : 1 h 59 min
    Bit rate : 19.4 kb/s
    Count of elements : 2112
    Stream size : 16.7 MiB (0%)
    Title : English-PGS
    Language : English
    Default : No
    Forced : No

    Text #3
    ID : 8
    Format : PGS
    Muxing mode : zlib
    Codec ID : S_HDMV/PGS
    Codec ID/Info : Picture based subtitle format used on BDs/HD-DVDs
    Duration : 1 h 59 min
    Bit rate : 12.0 kb/s
    Count of elements : 1606
    Stream size : 10.3 MiB (0%)
    Title : Japanese-PGS
    Language : Japanese
    Default : No
    Forced : No

    Text #4
    ID : 9
    Format : PGS
    Muxing mode : zlib
    Codec ID : S_HDMV/PGS
    Codec ID/Info : Picture based subtitle format used on BDs/HD-DVDs
    Duration : 2 h 10 min
    Bit rate : 14.1 kb/s
    Count of elements : 1796
    Stream size : 13.1 MiB (0%)
    Title : French-PGS
    Language : French
    Default : No
    Forced : No

    Text #5
    ID : 10
    Format : PGS
    Muxing mode : zlib
    Codec ID : S_HDMV/PGS
    Codec ID/Info : Picture based subtitle format used on BDs/HD-DVDs
    Duration : 2 h 10 min
    Bit rate : 17.3 kb/s
    Count of elements : 1818
    Stream size : 16.1 MiB (0%)
    Title : German-PGS
    Language : German
    Default : No
    Forced : No

    Text #6
    ID : 11
    Format : PGS
    Muxing mode : zlib
    Codec ID : S_HDMV/PGS
    Codec ID/Info : Picture based subtitle format used on BDs/HD-DVDs
    Duration : 2 h 10 min
    Bit rate : 15.3 kb/s
    Count of elements : 1816
    Stream size : 14.3 MiB (0%)
    Title : Italian-PGS
    Language : Italian
    Default : No
    Forced : No

    Text #7
    ID : 12
    Format : PGS
    Muxing mode : zlib
    Codec ID : S_HDMV/PGS
    Codec ID/Info : Picture based subtitle format used on BDs/HD-DVDs
    Duration : 2 h 10 min
    Bit rate : 15.0 kb/s
    Count of elements : 1604
    Stream size : 14.0 MiB (0%)
    Title : Swedish-PGS
    Language : Swedish
    Default : No
    Forced : No

    Text #8
    ID : 13
    Format : PGS
    Muxing mode : zlib
    Codec ID : S_HDMV/PGS
    Codec ID/Info : Picture based subtitle format used on BDs/HD-DVDs
    Duration : 2 h 10 min
    Bit rate : 14.1 kb/s
    Count of elements : 1416
    Stream size : 13.2 MiB (0%)
    Title : Danish-PGS
    Language : Danish
    Default : No
    Forced : No

    Text #9
    ID : 14
    Format : PGS
    Muxing mode : zlib
    Codec ID : S_HDMV/PGS
    Codec ID/Info : Picture based subtitle format used on BDs/HD-DVDs
    Duration : 2 h 10 min
    Bit rate : 14.9 kb/s
    Count of elements : 1778
    Stream size : 14.0 MiB (0%)
    Title : Finnish-PGS
    Language : Finnish
    Default : No
    Forced : No

    Text #10
    ID : 15
    Format : PGS
    Muxing mode : zlib
    Codec ID : S_HDMV/PGS
    Codec ID/Info : Picture based subtitle format used on BDs/HD-DVDs
    Duration : 2 h 10 min
    Bit rate : 14.6 kb/s
    Count of elements : 1574
    Stream size : 13.6 MiB (0%)
    Title : Dutch-PGS
    Language : Dutch
    Default : No
    Forced : No

    Text #11
    ID : 16
    Format : PGS
    Muxing mode : zlib
    Codec ID : S_HDMV/PGS
    Codec ID/Info : Picture based subtitle format used on BDs/HD-DVDs
    Duration : 2 h 10 min
    Bit rate : 13.6 kb/s
    Count of elements : 1686
    Stream size : 12.7 MiB (0%)
    Title : Norwegian-PGS
    Language : Norwegian
    Default : No
    Forced : No

    Text #12
    ID : 17
    Format : PGS
    Muxing mode : zlib
    Codec ID : S_HDMV/PGS
    Codec ID/Info : Picture based subtitle format used on BDs/HD-DVDs
    Duration : 2 h 10 min
    Bit rate : 16.8 kb/s
    Count of elements : 1784
    Stream size : 15.7 MiB (0%)
    Title : Greek-PGS
    Language : Greek
    Default : No
    Forced : No

    Text #13
    ID : 18
    Format : PGS
    Muxing mode : zlib
    Codec ID : S_HDMV/PGS
    Codec ID/Info : Picture based subtitle format used on BDs/HD-DVDs
    Duration : 2 h 10 min
    Bit rate : 15.5 kb/s
    Count of elements : 1760
    Stream size : 14.5 MiB (0%)
    Title : Turkish-PGS
    Language : Turkish
    Default : No
    Forced : No

    Text #14
    ID : 19
    Format : PGS
    Muxing mode : zlib
    Codec ID : S_HDMV/PGS
    Codec ID/Info : Picture based subtitle format used on BDs/HD-DVDs
    Duration : 2 h 3 min
    Bit rate : 37.4 kb/s
    Count of elements : 3305
    Stream size : 33.0 MiB (0%)
    Title : Japanese-PGS
    Language : Japanese
    Default : No
    Forced : No

    Text #15
    ID : 20
    Format : PGS
    Muxing mode : zlib
    Codec ID : S_HDMV/PGS
    Codec ID/Info : Picture based subtitle format used on BDs/HD-DVDs
    Duration : 1 h 59 min
    Bit rate : 19.4 kb/s
    Count of elements : 2112
    Stream size : 16.7 MiB (0%)
    Title : Forced
    Language : English
    Default : No
    Forced : No

    Text #16
    ID : 21
    Format : PGS
    Muxing mode : zlib
    Codec ID : S_HDMV/PGS
    Codec ID/Info : Picture based subtitle format used on BDs/HD-DVDs
    Duration : 1 h 59 min
    Bit rate : 24.1 kb/s
    Count of elements : 1834
    Stream size : 20.7 MiB (0%)
    Title : Under
    Language : English
    Default : No
    Forced : No

    Text #17
    ID : 22
    Format : PGS
    Muxing mode : zlib
    Codec ID : S_HDMV/PGS
    Codec ID/Info : Picture based subtitle format used on BDs/HD-DVDs
    Duration : 2 h 0 min
    Bit rate : 21.1 kb/s
    Count of elements : 1776
    Stream size : 18.2 MiB (0%)
    Title : Under
    Language : Thai
    Default : Yes
    Forced : Yes

    Text #18
    ID : 23
    Format : UTF-8
    Codec ID : S_TEXT/UTF8
    Codec ID/Info : UTF-8 Plain Text
    Duration : 1 h 59 min
    Bit rate : 27 b/s
    Count of elements : 917
    Stream size : 24.2 KiB (0%)
    Language : English
    Default : No
    Forced : No

    Text #19
    ID : 24
    Format : UTF-8
    Codec ID : S_TEXT/UTF8
    Codec ID/Info : UTF-8 Plain Text
    Duration : 2 h 0 min
    Bit rate : 61 b/s
    Count of elements : 888
    Stream size : 54.4 KiB (0%)
    Language : Thai
    Default : No
    Forced : No

    Text #20
    ID : 25
    Format : VobSub
    Muxing mode : zlib
    Codec ID : S_VOBSUB
    Codec ID/Info : Picture based subtitle format used on DVDs
    Duration : 1 h 48 min
    Bit rate : 3 787 b/s
    Count of elements : 794
    Stream size : 2.95 MiB (0%)
    Language : Thai
    Default : No
    Forced : No

    Menu
    00:00:00.000 : en:Chapter 1
    00:05:05.054 : en:Chapter 2
    00:10:26.792 : en:Chapter 3
    00:19:48.854 : en:Chapter 4
    00:27:46.456 : en:Chapter 5
    00:32:40.458 : en:Chapter 6
    00:38:04.490 : en:Chapter 7
    00:44:02.097 : en:Chapter 8
    00:51:08.648 : en:Chapter 9
    00:58:17.869 : en:Chapter 10
    01:02:08.558 : en:Chapter 11
    01:08:57.967 : en:Chapter 12
    01:13:36.537 : en:Chapter 13
    01:16:59.072 : en:Chapter 14
    01:26:57.003 : en:Chapter 15
    01:36:30.993 : en:Chapter 16
    01:43:37.794 : en:Chapter 17
    01:49:51.459 : en:Chapter 18
    01:53:44.734 : en:Chapter 19
    02:01:50.094 : en:Chapter 20




    Download: cornfile
    http://cornfile.com/zbcsy8pemdsc
    Download: mekafile
    http://www.mekafile.com/dl.php?f=jhe08cbWhnxt

  2. #2
    Senior Member
    สมัครเมื่อ
    Jun 2012
    โพสต์
    1,280
    Thanks
    0
    Thanked 1 Time in 1 Post
    ขอบคุณครับ

+ ตอบกลับกระทู้

ข้อมูลกระทู้

Users Browsing this Thread

ในขณะนี้มี 1 ท่านดูกระทู้อยู่. (0 สมาชิกและ 1 ผู้เยี่ยมชม)

     

กฎการโพสต์ข้อความ

  • ท่าน ไม่สามารถ ตั้งกระทู้ใหม่ได้
  • ท่าน ไม่สามารถ ตอบกระทู้ได้
  • ท่าน ไม่สามารถ แนบไฟล์ได้
  • ท่าน ไม่สามารถ แก้ไขข้อความโพสต์ได้
  • BB code สถานะ เปิด
  • Smilies สถานะ เปิด
  • [IMG] สถานะ เปิด
  • HTML สถานะ ปิด