+ ตอบกลับกระทู้
สรุปผลการค้นหา 1 ถึง 2 จากทั้งหมด 2
  1. #1
    Administrators รูปส่วนตัว Duckload.us
    สมัครเมื่อ
    Dec 2010
    โพสต์
    125,078
    Thanks
    7
    Thanked 130,059 Times in 57,675 Posts

    Lightbulb [ญี่ปุ่น]-[DESB] Shingeki no Kyojin (Attack On Titan) SS3 part2 (2019) / ผ่าพิภพไททัน ภาค3 ส่วนที่2 (2019) ตอนที่ 1-10 [จบ]-[ซับไทย]-[Demon Emperor]-HDTV.H.264.1080p. [อัดจาก TV]-[Soundtrack บรรยายไทย]



    ปัญหาการขาดแคลนอาหารในเมืองเริ่มหนักขึ้น พวกเอเลนยังพบปัญหาจากกลุ่มที่พยายามปิดบังความจริงเ กี่ยวกับไททัน ทำให้พวกเขาต้องค้นหาความจริงที่ถูกปิดบังโดยทางราชว งศ์ และวางแผนที่จะทำบางอย่างเพื่อเข้าถึงความจริงของพวก ไททัน

    ภาคแรกและไทม์ไลน์
    ปี 738 – มนุษย์เกือบสูญพันธ์ เพราะไททันที่กินมนุษย์จำนวนมากจนมนุษย์ที่เหลือรอดเ พียงน้อยนิดได้ก่อสร้างกำแพงขนาดใหญ่กว่าพวกยักษ์มาค ุ้มครองเมือง และไม่สามารถผ่านกำแพงที่สูงร่วม 50 เมตรเข้ามา ทำให้เกิดความสงบสุขนานนับร้อยปี
    ปี 845 – ความสงบสุขได้จบสิ้นลง เมื่อปรากฏไททันที่สูงใหญ่กว่ากำแพง สูงประมาณ 60 เมตร มาสร้างช่องว่างบนกำแพงให้ไททันตนอื่นบุกเข้าเมือง ไล่กินประชากรในเมือง ทำให้ประชาชนส่วนหนึ่งต้องหนีไปกำแพงชั้นใน และเกิดการสูญเสียครั้งใหญ่ เอเลน ตอนเด็กได้เห็นแม่เขาถูกกินทั้งเป็น ทำให้เขาสาบานว่าจะฆ่าพวกไททันทุกตน ภายหลังเขาและมิคาสะพี่สาวบุญธรรมของเขา ได้เข้าร่วมกับหน่วยทหาร
    ปี 850 – เอเลนและมิคาสะได้จบหลักสูตร ทหารฝึกหัดหน่วย 104 ทั้งสองได้ปฏิบัติภารกิจจริง ที่ต้องเผชิญหน้าพวกไททันที่ครองผืนดินที่เคยเป็นของ มนุษย์มาก่อน

    ซับไทยโดย Varia-animev2 , Nemuria Subs


    General
    Complete name : Shingeki no Kyojin SS3 part2 Ep.10 Ep.1-10 SubTH [End] by Demon Emperor
    Format : Matroska
    Format version : Version 4
    File size : 718 MiB
    Duration : 23 min 55 s
    Overall bit rate : 4 198 kb/s
    Movie name : Shingeki no Kyojin SS3 part2 [email protected] Emperor
    Encoded date : UTC 2019-07-06 09:36:50
    Writing application : mkvmerge v10.0.0 ('To Drown In You') 64bit
    Writing library : libebml v1.3.4 + libmatroska v1.4.5
    Cover : Yes
    Attachments : cover.jpg

    Video
    ID : 1
    Format : AVC
    Format/Info : Advanced Video Codec
    Format profile : [email protected]
    Format settings : CABAC / 4 Ref Frames
    Format settings, CABAC : Yes
    Format settings, ReFrames : 4 frames
    Format settings, GOP : M=1, N=72
    Codec ID : V_MPEG4/ISO/AVC
    Duration : 23 min 55 s
    Bit rate : 3 918 kb/s
    Width : 1 920 pixels
    Height : 1 080 pixels
    Display aspect ratio : 16:9
    Frame rate mode : Constant
    Frame rate : 24.000 FPS
    Color space : YUV
    Chroma subsampling : 4:2:0
    Bit depth : 8 bits
    Scan type : Progressive
    Bits/(Pixel*Frame) : 0.079
    Stream size : 682 MiB (95%)
    Title : Shingeki no Kyojin SS3 part2 [email protected] Emperor
    Writing library : x264 core 152 r2851 ba24899
    Encoding settings : cabac=1 / ref=4 / deblock=1:2:2 / analyse=0x3:0x113 / me=hex / subme=2 / psy=1 / psy_rd=1.00:0.00 / mixed_ref=1 / me_range=16 / chroma_me=1 / trellis=0 / 8x8dct=1 / cqm=0 / deadzone=21,11 / fast_pskip=1 / chroma_qp_offset=0 / threads=34 / lookahead_threads=8 / sliced_threads=0 / nr=0 / decimate=1 / interlaced=0 / bluray_compat=0 / constrained_intra=0 / bframes=0 / weightp=2 / keyint=72 / keyint_min=7 / scenecut=0 / intra_refresh=0 / rc_lookahead=40 / rc=abr / mbtree=1 / bitrate=3918 / ratetol=1.0 / qcomp=0.60 / qpmin=10 / qpmax=51 / qpstep=4 / ip_ratio=0.91 / aq=1:1.00
    Language : Japanese
    Default : Yes
    Forced : No

    Audio
    ID : 2
    Format : AAC LC
    Format/Info : Advanced Audio Codec Low Complexity
    Codec ID : A_AAC-2
    Duration : 23 min 55 s
    Bit rate : 204 kb/s
    Channel(s) : 2 channels
    Channel layout : L R
    Sampling rate : 44.1 kHz
    Frame rate : 43.066 FPS (1024 SPF)
    Compression mode : Lossy
    Stream size : 34.9 MiB (5%)
    Language : Japanese
    Default : Yes
    Forced : No
















    7.03 GB
    http://www.filecondo.com/dl.php?f=T3f9fe1HNJmM

  2. The Following User Says Thank You to Duckload.us For This Useful Post:

    Wesker_TOT (03-10-2021)

  3. #2
    Senior Member
    สมัครเมื่อ
    Dec 2013
    โพสต์
    2,652
    Thanks
    4,572
    Thanked 0 Times in 0 Posts
    ขอบคุณครับ...

+ ตอบกลับกระทู้

ข้อมูลกระทู้

Users Browsing this Thread

ในขณะนี้มี 1 ท่านดูกระทู้อยู่. (0 สมาชิกและ 1 ผู้เยี่ยมชม)

     

กฎการโพสต์ข้อความ

  • ท่าน ไม่สามารถ ตั้งกระทู้ใหม่ได้
  • ท่าน ไม่สามารถ ตอบกระทู้ได้
  • ท่าน ไม่สามารถ แนบไฟล์ได้
  • ท่าน ไม่สามารถ แก้ไขข้อความโพสต์ได้
  • BB code สถานะ เปิด
  • Smilies สถานะ เปิด
  • [IMG] สถานะ เปิด
  • HTML สถานะ ปิด