+ ตอบกลับกระทู้
สรุปผลการค้นหา 1 ถึง 4 จากทั้งหมด 4
  1. #1
    Administrators รูปส่วนตัว Duckload.us
    สมัครเมื่อ
    Dec 2010
    โพสต์
    122,610
    Thanks
    7
    Thanked 127,851 Times in 56,983 Posts

    Question [ฝรั่ง]-((>x265<)) Alita: Battle Angel (2019) อลิตา แบทเทิล แองเจิ้ล [พากย์ไทย 5.1 + เสียงอังกฤษ TrueHD 7.1.Atmos]-[บรรยายไทย + อังกฤษ]-[เสียงไทย + ซับไทย From Blu-Ray MASTER +ซับ PGS คมชัด]



    Alita: Battle Angel (2019)
    Alita: Battle Angel ภาพยนตร์ดัดแปลงจากการ์ตูนญี่ปุ่นเรื่อง เพชฌฆาตไซบอร์ก หรือในชื่อญี่ปุ่นว่า Gunnm ซึ่งเขียนโดย คิชิโระ ยูกิโตะ
    และได้รับการดัดแปลงเป็นแอนิเมชั่นจากเนื้อเรื่องในห นังสือเล่มแรก ๆในชื่อ Battle Angel เรื่องราวเกิดขึ้นในอนาคตอันไกลโพ้น
    ซึ่งไซบอร์คและหุ่นยนตร์กลายเป็นเรื่องปกติ เมืองลอยฟ้าทิฟาเรส เก็บงำความลับอันดำมืด มันทิ้งขยะไร้ค่าลงสู่โล่งเบื้องล่าง
    และที่ลานทิ้งขยะนั้นเอง แพทย์ไซบอร์ค อิโดะ พบเข้ากับชิ้นส่วนหัวและลำตัวของเด็กสาวไซบอร์คที่ยั งมีชีวิตอยู่ได้
    มีเพียงสมองของเธอเท่านั้นที่เป็นมนุษย์ ส่วนอื่นในร่างกายของเธอล้วนเป็นเครื่องจักร เธอสูญเสียความทรงจำทั้งหมดในอดีต
    และได้ชื่อใหม่จากอิโดะ เอลิตา เขาสร้างเธอขึ้นมาใหม่อีกครั้งและกลายเป็นเสมือนบิดา ของเธอในฐานะผู้มอบร่างกายใหม่ให้
    อย่างไรก็ตาม ข่าวการฆาตกรรมต่อเนื่องได้เริ่มแพร่กระจายไปในเมือง อลิตาเริ่มสงสัยอิโดะในฐานะผู้ลงมือเพื่อหาชิ้นส่วนร ่างกายให้เธอ
    แต่เมื่อเธอติดตามเขาออกไปในคืนหนึ่ง จึงได้พบว่าที่แท้เขากำลังตามจับตัวฆาตกร ภายใต้ฐานะ ฮันเตอร์ วอร์ริเออร์
    ที่เขาได้รับมอบหมายมา ระหว่างการเข้าปะทะกับฆาตกรตัวจริงนั้น สัญชาติญาณของเด็กสาวก็ทำงาน เธอล้มฆาตกรได้ด้วยศิลปะการต่อสู้โบราณ
    ผลสุดท้าย เธอจึงตัดสินใจเข้าช่วยเหลืออิโดะในการพิทักษ์ความยุ ติธรรม และได้กลายมาเป็นฮันเตอร์วอร์ริเออร์เช่นกัน
    เธอปลดล็อคความสามารถและพลังที่แท้จริงของตนเอง เข้าต่อสู้กับศัตรูที่แสนอันตราย และเพื่อนผู้ยึดมั่นในอุดมการณ์!!


    Code:
    Format                      : Matroska
    Format version              : Version 4 / Version 2
    File size                   : 11.6 GiB
    Duration                    : 2 h 1 min
    Overall bit rate mode       : Variable
    Overall bit rate            : 13.6 Mb/s
    Movie name                  : Alita.B[email protected]LaKraTos-Siambit
    
    Video
    ID                          : 1
    Format                      : HEVC
    Format/Info                 : High Efficiency Video Coding
    Format profile              : Main [email protected]@High
    Codec ID                    : V_MPEGH/ISO/HEVC
    Duration                    : 2 h 1 min
    Bit rate                    : 8 017 kb/s
    Width                       : 1 920 pixels
    Height                      : 804 pixels
    Display aspect ratio        : 2.40:1
    Frame rate mode             : Constant
    Frame rate                  : 23.976 (24000/1001) FPS
    Color space                 : YUV
    Chroma subsampling          : 4:2:0
    Bit depth                   : 10 bits
    Bits/(Pixel*Frame)          : 0.217
    Stream size                 : 6.83 GiB (59%)
    Title                       : Alita.B[email protected]LaKraTos-Siambit
    Writing library             : x265 - H.265/HEVC codec
    Encoding settings           : lslices=4 / deblock(tC=-1:B=-1)
    Language                    : English
    Default                     : Yes
    Forced                      : No
    
    Audio #1
    ID                          : 2
    Format                      : AC-3
    Format/Info                 : Audio Coding 3
    Format settings, Endianness : Big
    Codec ID                    : A_AC3
    Duration                    : 2 h 1 min
    Bit rate mode               : Constant
    Bit rate                    : 448 kb/s
    Channel(s)                  : 6 channels
    Channel positions           : Front: L C R, Side: L R, LFE
    Sampling rate               : 48.0 kHz
    Frame rate                  : 31.250 FPS (1536 spf)
    Bit depth                   : 16 bits
    Compression mode            : Lossy
    Stream size                 : 391 MiB (3%)
    Title                       : Thai BluRay Master 5.1
    Language                    : Thai
    Service kind                : Complete Main
    Default                     : Yes
    Forced                      : Yes
    
    Audio #2
    ID                          : 3
    Format                      : TrueHD
    Format profile              : TrueHD+Atmos / TrueHD
    Codec ID                    : A_TRUEHD
    Duration                    : 2 h 1 min
    Bit rate mode               : Variable
    Bit rate                    : 5 013 kb/s
    Channel(s)                  : Object Based / 8 channels
    Channel positions           : Object Based / Front: L C R, Side: L R, Back: L R, LFE
    Sampling rate               :  / 48.0 kHz
    Frame rate                  : 1 200.000 FPS (40 spf)
    Compression mode            : Lossless
    Stream size                 : 4.30 GiB (37%)
    Title                       : TrueHD 7.1.Atmos
    Language                    : English
    Default                     : No
    Forced                      : Yes
    
    Text #1
    ID                          : 4
    Format                      : VobSub
    Muxing mode                 : zlib
    Codec ID                    : S_VOBSUB
    Codec ID/Info               : Picture based subtitle format used on DVDs
    Duration                    : 2 h 1 min
    Bit rate                    : 1 368 b/s
    Count of elements           : 1265
    Stream size                 : 1.19 MiB (0%)
    Title                       : Thai 480p
    Language                    : Thai
    Default                     : No
    Forced                      : No
    
    Text #2
    ID                          : 5
    Format                      : VobSub
    Muxing mode                 : zlib
    Codec ID                    : S_VOBSUB
    Codec ID/Info               : Picture based subtitle format used on DVDs
    Duration                    : 2 h 1 min
    Bit rate                    : 2 490 b/s
    Count of elements           : 1265
    Stream size                 : 2.17 MiB (0%)
    Title                       : Thai 720p
    Language                    : Thai
    Default                     : No
    Forced                      : No
    
    Text #3
    ID                          : 6
    Format                      : VobSub
    Muxing mode                 : zlib
    Codec ID                    : S_VOBSUB
    Codec ID/Info               : Picture based subtitle format used on DVDs
    Duration                    : 2 h 1 min
    Bit rate                    : 4 029 b/s
    Count of elements           : 1265
    Stream size                 : 3.51 MiB (0%)
    Title                       : Thai 1080p
    Language                    : Thai
    Default                     : No
    Forced                      : No
    
    Text #4
    ID                          : 7
    Format                      : VobSub
    Muxing mode                 : zlib
    Codec ID                    : S_VOBSUB
    Codec ID/Info               : Picture based subtitle format used on DVDs
    Duration                    : 2 h 1 min
    Bit rate                    : 4 026 b/s
    Count of elements           : 1265
    Stream size                 : 3.51 MiB (0%)
    Title                       : Thai 1080p Yellow
    Language                    : Thai
    Default                     : No
    Forced                      : No
    
    Text #5
    ID                          : 8
    Format                      : VobSub
    Muxing mode                 : zlib
    Codec ID                    : S_VOBSUB
    Codec ID/Info               : Picture based subtitle format used on DVDs
    Duration                    : 2 h 1 min
    Bit rate                    : 4 033 b/s
    Count of elements           : 1265
    Stream size                 : 3.51 MiB (0%)
    Title                       : Thai 1080p Out
    Language                    : Thai
    Default                     : No
    Forced                      : No
    
    Text #6
    ID                          : 9
    Format                      : VobSub
    Muxing mode                 : zlib
    Codec ID                    : S_VOBSUB
    Codec ID/Info               : Picture based subtitle format used on DVDs
    Duration                    : 2 h 1 min
    Bit rate                    : 5 259 b/s
    Count of elements           : 1265
    Stream size                 : 4.58 MiB (0%)
    Title                       : Thai 1080p BIG
    Language                    : Thai
    Default                     : No
    Forced                      : No
    
    Text #7
    ID                          : 10
    Format                      : VobSub
    Muxing mode                 : zlib
    Codec ID                    : S_VOBSUB
    Codec ID/Info               : Picture based subtitle format used on DVDs
    Duration                    : 2 h 1 min
    Bit rate                    : 5 269 b/s
    Count of elements           : 1265
    Stream size                 : 4.59 MiB (0%)
    Title                       : Thai 1080p Out [BIG]
    Language                    : Thai
    Default                     : No
    Forced                      : No
    
    Text #8
    ID                          : 11
    Format                      : PGS
    Muxing mode                 : zlib
    Codec ID                    : S_HDMV/PGS
    Codec ID/Info               : Picture based subtitle format used on BDs/HD-DVDs
    Duration                    : 2 h 1 min
    Bit rate                    : 6 159 b/s
    Count of elements           : 2524
    Stream size                 : 5.35 MiB (0%)
    Title                       : Thai PGS BluRay Master
    Language                    : Thai
    Default                     : Yes
    Forced                      : Yes
    
    Text #9
    ID                          : 12
    Format                      : PGS
    Muxing mode                 : zlib
    Codec ID                    : S_HDMV/PGS
    Codec ID/Info               : Picture based subtitle format used on BDs/HD-DVDs
    Duration                    : 2 h 1 min
    Bit rate                    : 13.5 kb/s
    Count of elements           : 2530
    Stream size                 : 11.8 MiB (0%)
    Title                       : Thai PGS Yellow
    Language                    : Thai
    Default                     : No
    Forced                      : No
    
    Text #10
    ID                          : 13
    Format                      : PGS
    Muxing mode                 : zlib
    Codec ID                    : S_HDMV/PGS
    Codec ID/Info               : Picture based subtitle format used on BDs/HD-DVDs
    Duration                    : 2 h 1 min
    Bit rate                    : 13.4 kb/s
    Count of elements           : 2530
    Stream size                 : 11.6 MiB (0%)
    Title                       : Thai PGS Out
    Language                    : Thai
    Default                     : No
    Forced                      : No
    
    Text #11
    ID                          : 14
    Format                      : PGS
    Muxing mode                 : zlib
    Codec ID                    : S_HDMV/PGS
    Codec ID/Info               : Picture based subtitle format used on BDs/HD-DVDs
    Duration                    : 1 h 58 min
    Bit rate                    : 9 939 b/s
    Count of elements           : 3180
    Stream size                 : 8.42 MiB (0%)
    Title                       : English
    Language                    : English
    Default                     : No
    Forced                      : No
    
    Menu
    00:00:00.000                : en:Chapter 1
    00:00:27.027                : en:Chapter 2
    00:05:23.032                : en:Chapter 3
    00:13:08.037                : en:Chapter 4
    00:18:06.043                : en:Chapter 5
    00:23:00.045                : en:Chapter 6
    00:25:40.080                : en:Chapter 7
    00:33:30.050                : en:Chapter 8
    00:36:34.067                : en:Chapter 9
    00:37:47.015                : en:Chapter 10
    00:38:32.060                : en:Chapter 11
    00:41:07.007                : en:Chapter 12
    00:45:59.048                : en:Chapter 13
    00:48:32.033                : en:Chapter 14
    00:52:58.050                : en:Chapter 15
    00:55:16.022                : en:Chapter 16
    01:02:58.067                : en:Chapter 17
    01:10:24.012                : en:Chapter 18
    01:16:36.050                : en:Chapter 19
    01:18:53.020                : en:Chapter 20
    01:22:50.048                : en:Chapter 21
    01:24:57.008                : en:Chapter 22
    01:28:26.050                : en:Chapter 23
    01:36:10.015                : en:Chapter 24
    01:38:42.000                : en:Chapter 25
    01:43:29.078                : en:Chapter 26
    01:44:46.030                : en:Chapter 27
    01:51:45.073                : en:Chapter 28
    01:54:31.032                : en:Chapter 29
    01:56:53.007                : en:Chapter 30
    01:56:56.008                : en:Chapter 31












    Download: cornfile
    http://cornfile.com/uii7i9x1zuvc
    Download: mekafile
    http://www.filecondo.com/dl.php?f=Th363ebWDU1U

  2. The Following 2 Users Say Thank You to Duckload.us For This Useful Post:

    kappa (08-03-2019), Tatum03 (08-18-2020)

  3. #2
    Senior Member
    สมัครเมื่อ
    Jun 2014
    โพสต์
    5,217
    Thanks
    0
    Thanked 0 Times in 0 Posts
    ขอบคุณครับ

  4. #3
    Senior Member
    สมัครเมื่อ
    Oct 2013
    ที่อยู่
    Thailand
    โพสต์
    1,403
    Thanks
    1,271
    Thanked 0 Times in 0 Posts
    ขอบคุณมาก

  5. #4
    Junior Member
    สมัครเมื่อ
    Oct 2012
    โพสต์
    26
    Thanks
    2
    Thanked 0 Times in 0 Posts
    ขอบคุณครับ

+ ตอบกลับกระทู้

ข้อมูลกระทู้

Users Browsing this Thread

ในขณะนี้มี 1 ท่านดูกระทู้อยู่. (0 สมาชิกและ 1 ผู้เยี่ยมชม)

     

กฎการโพสต์ข้อความ

  • ท่าน ไม่สามารถ ตั้งกระทู้ใหม่ได้
  • ท่าน ไม่สามารถ ตอบกระทู้ได้
  • ท่าน ไม่สามารถ แนบไฟล์ได้
  • ท่าน ไม่สามารถ แก้ไขข้อความโพสต์ได้
  • BB code สถานะ เปิด
  • Smilies สถานะ เปิด
  • [IMG] สถานะ เปิด
  • HTML สถานะ ปิด