+ ตอบกลับกระทู้
สรุปผลการค้นหา 1 ถึง 3 จากทั้งหมด 3
  1. #1
    Administrators รูปส่วนตัว Duckload.us
    สมัครเมื่อ
    Dec 2010
    โพสต์
    108,548
    Thanks
    7
    Thanked 113,559 Times in 52,384 Posts

    Question [ฝรั่ง]-[* ใหม่*][ Mini-HD 1080p ] Teen Spirit (2018) ทีน สปิริต [พากย์ไทย 5.1 + English DTS]• [บรรยายไทย + อังกฤษ]-Blu-ray.DTS.1080p. [Modified]-[พากย์ไทย บรรยายไทย




    เรื่องราวของเด็กสาว “ไวโอเล็ต” ที่เข้าแข่งขันประกวดร้องเพลงรายการ “Teen Spirit” และตัวละครของเธอต้องฝ่าด่านเพื่อขึ้นสู่การที่หนึ่ง ของการแข่งขัน โดยนอกจาก “แอล แฟนนิง” แล้ว หนังยังได้ “รีเบกกา ฮอลล์” ร่วมรับบทโปรดิวเซอร์รายการที่พยายามทุกวิถีทางที่จะ นำเธอขึ้นสู่จุดสูงสุดของการเป็นนักร้อง

    Format : MPEG-4
    Format profile : Base Media / Version 2
    Codec ID : mp42 (isom/iso2/avc1/mp41)
    File size : 5.10 GiB
    Duration : 1 h 33 min
    Overall bit rate : 7 779 kb/s
    Encoded date : UTC 2019-07-17 07:06:45
    Tagged date : UTC 2019-07-17 07:06:45
    Writing application : HandBrake 1.2.2 2019022300

    Video
    ID : 1
    Format : AVC
    Format/Info : Advanced Video Codec
    Format profile : [email protected]
    Format settings : CABAC / 4 Ref Frames
    Format settings, CABAC : Yes
    Format settings, ReFrames : 4 frames
    Codec ID : avc1
    Codec ID/Info : Advanced Video Coding
    Duration : 1 h 33 min
    Bit rate : 4 500 kb/s
    Width : 1 920 pixels
    Height : 804 pixels
    Display aspect ratio : 2.40:1
    Frame rate mode : Variable
    Frame rate : 23.976 (24000/1001) FPS
    Minimum frame rate : 23.974 FPS
    Maximum frame rate : 23.981 FPS
    Color space : YUV
    Chroma subsampling : 4:2:0
    Bit depth : 8 bits
    Scan type : Progressive
    Bits/(Pixel*Frame) : 0.122
    Stream size : 2.91 GiB (57%)
    Writing library : x264 core 157 r2935 545de2f
    Encoding settings : cabac=1 / ref=3 / deblock=1:0:0 / analyse=0x3:0x113 / me=hex / subme=7 / psy=1 / psy_rd=1.00:0.00 / mixed_ref=1 / me_range=16 / chroma_me=1 / trellis=1 / 8x8dct=1 / cqm=0 / deadzone=21,11 / fast_pskip=1 / chroma_qp_offset=-2 / threads=12 / lookahead_threads=2 / sliced_threads=0 / nr=0 / decimate=1 / interlaced=0 / bluray_compat=0 / constrained_intra=0 / bframes=3 / b_pyramid=2 / b_adapt=1 / b_bias=0 / direct=1 / weightb=1 / open_gop=0 / weightp=2 / keyint=240 / keyint_min=24 / scenecut=40 / intra_refresh=0 / rc_lookahead=40 / rc=abr / mbtree=1 / bitrate=4500 / ratetol=1.0 / qcomp=0.60 / qpmin=0 / qpmax=69 / qpstep=4 / vbv_maxrate=62500 / vbv_bufsize=78125 / nal_hrd=none / filler=0 / ip_ratio=1.40 / aq=1:1.00
    Encoded date : UTC 2019-07-17 07:06:45
    Tagged date : UTC 2019-07-17 07:06:45
    Color range : Limited
    Color primaries : BT.709
    Transfer characteristics : BT.709
    Matrix coefficients : BT.709
    Codec configuration box : avcC

    Audio #1
    ID : 2
    Format : AAC LC
    Format/Info : Advanced Audio Codec Low Complexity
    Codec ID : mp4a-40-2
    Duration : 1 h 33 min
    Bit rate mode : Constant
    Bit rate : 449 kb/s
    Channel(s) : 6 channels
    Channel layout : C L R Ls Rs LFE
    Sampling rate : 48.0 kHz
    Frame rate : 46.875 FPS (1024 SPF)
    Compression mode : Lossy
    Stream size : 301 MiB (6%)
    Title : Surround
    Language : Thai
    Default : Yes
    Alternate group : 1
    Encoded date : UTC 2019-07-17 07:06:45
    Tagged date : UTC 2019-07-17 07:06:45
    Fallback From : 4

    Audio #2
    ID : 3
    Format : AAC LC
    Format/Info : Advanced Audio Codec Low Complexity
    Codec ID : mp4a-40-2
    Duration : 1 h 33 min
    Bit rate mode : Constant
    Bit rate : 448 kb/s
    Channel(s) : 6 channels
    Channel layout : C L R Ls Rs LFE
    Sampling rate : 48.0 kHz
    Frame rate : 46.875 FPS (1024 SPF)
    Compression mode : Lossy
    Stream size : 301 MiB (6%)
    Title : Surround
    Language : English
    Default : No
    Alternate group : 1
    Encoded date : UTC 2019-07-17 07:06:45
    Tagged date : UTC 2019-07-17 07:06:45
    Fallback From : 5,6

    Audio #3
    ID : 4
    Format : AC-3
    Format/Info : Audio Coding 3
    Commercial name : Dolby Digital
    Codec ID : ac-3
    Duration : 1 h 33 min
    Bit rate mode : Constant
    Bit rate : 448 kb/s
    Channel(s) : 6 channels
    Channel layout : L R C LFE Ls Rs
    Sampling rate : 48.0 kHz
    Frame rate : 31.250 FPS (1536 SPF)
    Bit depth : 16 bits
    Compression mode : Lossy
    Stream size : 301 MiB (6%)
    Title : Surround
    Language : Thai
    Service kind : Complete Main
    Default : Inherited From: 2
    Alternate group : 1
    Encoded date : UTC 2019-07-17 07:06:45
    Tagged date : UTC 2019-07-17 07:06:45
    Fallback To : 2

    Audio #4
    ID : 5
    Format : AC-3
    Format/Info : Audio Coding 3
    Commercial name : Dolby Digital
    Codec ID : ac-3
    Duration : 1 h 33 min
    Bit rate mode : Constant
    Bit rate : 448 kb/s
    Channel(s) : 6 channels
    Channel layout : L R C LFE Ls Rs
    Sampling rate : 48.0 kHz
    Frame rate : 31.250 FPS (1536 SPF)
    Bit depth : 16 bits
    Compression mode : Lossy
    Stream size : 301 MiB (6%)
    Title : Surround
    Language : English
    Service kind : Complete Main
    Default : No
    Alternate group : 1
    Encoded date : UTC 2019-07-17 07:06:45
    Tagged date : UTC 2019-07-17 07:06:45
    Fallback To : 3

    Audio #5
    ID : 6
    Format : DTS
    Format/Info : Digital Theater Systems
    Codec ID : mp4a-A9
    Duration : 1 h 33 min
    Bit rate mode : Constant
    Bit rate : 1 509 kb/s
    Channel(s) : 6 channels
    Channel layout : C L R Ls Rs LFE
    Sampling rate : 48.0 kHz
    Frame rate : 93.750 FPS (512 SPF)
    Bit depth : 24 bits
    Compression mode : Lossy
    Stream size : 1 013 MiB (19%)
    Title : Surround
    Language : English
    Default : No
    Alternate group : 1
    Encoded date : UTC 2019-07-17 07:06:45
    Tagged date : UTC 2019-07-17 07:06:45
    Fallback To : 3

    Text #1
    ID : 7
    Format : VobSub
    Codec ID : mp4s-E0
    Codec ID/Info : The same subtitle format used on DVDs
    Duration : 1 h 30 min
    Bit rate mode : Constant
    Bit rate : 7 493 b/s
    Stream size : 4.87 MiB (0%)
    Language : Thai
    Default : Yes
    Forced : No
    Alternate group : 3
    Encoded date : UTC 2019-07-17 07:06:45
    Tagged date : UTC 2019-07-17 07:06:45

    Text #2
    ID : 8
    Format : VobSub
    Codec ID : mp4s-E0
    Codec ID/Info : The same subtitle format used on DVDs
    Duration : 1 h 33 min
    Bit rate mode : Constant
    Bit rate : 9 585 b/s
    Stream size : 6.43 MiB (0%)
    Language : English
    Default : No
    Forced : No
    Alternate group : 3
    Encoded date : UTC 2019-07-17 07:06:45
    Tagged date : UTC 2019-07-17 07:06:45





    mp4 5.1 GB
    http://cornfile.com/3bbin6is4833
    http://www.mekafile.com/dl.php?f=v77b22bWGtHI

    mkv 4.9 GB
    http://cornfile.com/5z6qns1bco5q
    http://www.mekafile.com/dl.php?f=Pw46f5bWGttI

  2. The Following 4 Users Say Thank You to Duckload.us For This Useful Post:

    apichartdear (07-19-2019), noi54 (07-20-2019), Sherlock (07-20-2019), Wesker_TOT (07-20-2019)

  3. #2
    Senior Member
    สมัครเมื่อ
    Dec 2013
    โพสต์
    1,839
    Thanks
    3,778
    Thanked 0 Times in 0 Posts
    ขอบคุณครับ...

  4. #3
    Senior Member
    สมัครเมื่อ
    Jun 2014
    โพสต์
    1,340
    Thanks
    0
    Thanked 0 Times in 0 Posts
    ขอบคุณครับ

+ ตอบกลับกระทู้

ข้อมูลกระทู้

Users Browsing this Thread

ในขณะนี้มี 1 ท่านดูกระทู้อยู่. (0 สมาชิกและ 1 ผู้เยี่ยมชม)

     

กฎการโพสต์ข้อความ

  • ท่าน ไม่สามารถ ตั้งกระทู้ใหม่ได้
  • ท่าน ไม่สามารถ ตอบกระทู้ได้
  • ท่าน ไม่สามารถ แนบไฟล์ได้
  • ท่าน ไม่สามารถ แก้ไขข้อความโพสต์ได้
  • BB code สถานะ เปิด
  • Smilies สถานะ เปิด
  • [IMG] สถานะ เปิด
  • HTML สถานะ ปิด