+ ตอบกลับกระทู้
สรุปผลการค้นหา 1 ถึง 3 จากทั้งหมด 3
  1. #1
    Administrators รูปส่วนตัว Duckload.us
    สมัครเมื่อ
    Dec 2010
    โพสต์
    108,730
    Thanks
    7
    Thanked 113,781 Times in 52,441 Posts

    Question Upgrade (2018) อัพเกรด ครึ่งคนครึ่งปัญญาประดิษฐ์ [พากย์:Thai 5.1+ Eng DTS][SUB:thai + eng][1080p] IMDb ได้ 7.7



    Upgrade
    วันที่ฉาย: 1 มิ.ย. 2561
    ประเภท: หนังตลก,หนังผี,หนังแอคชั่น
    ผู้กำกับ: Leigh Whannell
    นักแสดง: Logan Marshall-Green, Richard Cawthorne, Rosco Campbell

    เรื่องย่อ
    Upgrade ว่าด้วยเรื่องราวของ เกรย์ เทรซ ชายผู้ซึ่งสูญเสียภรรยาจากเหตุโดนแฮกรถยนต์ ทั้งยังถูกทิ้งให้ตายทั้งเป็นกับอาการอัมพา นักประดิษฐ์กลุ่มหนึ่งได้เสนอความช่วยเหลือด้วยการปล ูกถ่ายเทคโนโลยีลงระบบประสาท ฝังเอไอไปในร่างกาย ซึ่งอัปเกรดร่างกายของเขาให้มีศักยภาพเหนือมนุษย์สำห รับการล้างแค้น ทำให้เป็น ครึ่งคนครึ่งปัญญาประดิษฐ์



    General
    Format : Matroska
    Format version : Version 4
    File size : 4.62 GiB
    Duration : 1 h 39 min
    Overall bit rate : 6 618 kb/s
    Movie name : Upgrade.2018.1080p.bluray.x264 (Super HQ)[email protected] CUP
    Encoded date : UTC 2019-07-21 12:10:43
    Writing application : mkvmerge v35.0.0 ('All The Love In The World') 64-bit
    Writing library : libebml v1.3.9 + libmatroska v1.5.2
    Cover : Yes
    Attachments : small_cover.jpg / small_cover_land.jpg / cover.jpg / cover_land.jpg

    Video
    ID : 1
    Format : AVC
    Format/Info : Advanced Video Codec
    Format profile : [email protected]
    Format settings : CABAC / 1 Ref Frames
    Format settings, CABAC : Yes
    Format settings, ReFrames : 1 frame
    Format settings, GOP : M=1, N=25
    Codec ID : V_MPEG4/ISO/AVC
    Duration : 1 h 39 min
    Bit rate mode : Constant
    Bit rate : 5 500 kb/s
    Width : 1 920 pixels
    Height : 808 pixels
    Display aspect ratio : 2.40:1
    Frame rate mode : Constant
    Frame rate : 29.970 (30000/1001) FPS
    Color space : YUV
    Chroma subsampling : 4:2:0
    Bit depth : 8 bits
    Scan type : Progressive
    Bits/(Pixel*Frame) : 0.118
    Stream size : 3.84 GiB (83%)
    Title : Upgrade.2018.1080p.bluray.x264 (Super HQ)[email protected] CUP
    Language : English
    Default : Yes
    Forced : No

    Audio #1
    ID : 2
    Format : AC-3
    Format/Info : Audio Coding 3
    Commercial name : Dolby Digital
    Codec ID : A_AC3
    Duration : 1 h 39 min
    Bit rate mode : Constant
    Bit rate : 448 kb/s
    Channel(s) : 6 channels
    Channel layout : L R C LFE Ls Rs
    Sampling rate : 44.1 kHz
    Frame rate : 28.711 FPS (1536 SPF)
    Bit depth : 16 bits
    Compression mode : Lossy
    Stream size : 320 MiB (7%)
    Title : 5.1 AC3 Thai 448k 320m
    Language : Thai
    Service kind : Complete Main
    Default : Yes
    Forced : No

    Audio #2
    ID : 3
    Format : DTS
    Format/Info : Digital Theater Systems
    Codec ID : A_DTS
    Duration : 1 h 39 min
    Bit rate mode : Constant
    Bit rate : 661 kb/s
    Channel(s) : 6 channels
    Channel layout : C L R Ls Rs LFE
    Sampling rate : 8 000 Hz
    Frame rate : 7.813 FPS (1024 SPF)
    Bit depth : 16 bits
    Compression mode : Lossy
    Stream size : 473 MiB (10%)
    Title : dts 5.1 Eng 8000-472m
    Language : English
    Default : No
    Forced : No

    Text #1
    ID : 4
    Format : VobSub
    Muxing mode : zlib
    Codec ID : S_VOBSUB
    Codec ID/Info : Picture based subtitle format used on DVDs
    Duration : 1 h 33 min
    Bit rate : 10.2 kb/s
    Count of elements : 1324
    Stream size : 6.77 MiB (0%)
    Language : English
    Default : No
    Forced : No

    Text #2
    ID : 5
    Format : VobSub
    Muxing mode : zlib
    Codec ID : S_VOBSUB
    Codec ID/Info : Picture based subtitle format used on DVDs
    Duration : 1 h 34 min
    Bit rate : 7 132 b/s
    Count of elements : 1294
    Stream size : 4.80 MiB (0%)
    Title : Thai.VOB
    Language : Thai
    Default : No
    Forced : No

    Text #3
    ID : 6
    Format : UTF-8
    Codec ID : S_TEXT/UTF8
    Codec ID/Info : UTF-8 Plain Text
    Duration : 1 h 34 min
    Bit rate : 118 b/s
    Count of elements : 1293
    Stream size : 81.6 KiB (0%)
    Title : Thai.SRT
    Language : Thai
    Default : Yes
    Forced : Yes






    Download: cornfile
    http://cornfile.com/lh31cntcuh1o
    Download: mekafile
    http://www.mekafile.com/dl.php?f=yc2d6bbWOsjt

  2. The Following 6 Users Say Thank You to Duckload.us For This Useful Post:

    apichartdear (07-22-2019), bigbang06 (07-22-2019), gaszolineskywalker (08-12-2019), NaiWan (08-13-2019), smakha (07-23-2019), Tellmon (07-23-2019)

  3. #2
    Senior Member
    สมัครเมื่อ
    Jun 2014
    โพสต์
    1,520
    Thanks
    0
    Thanked 0 Times in 0 Posts
    ขอบคุณครับ

  4. #3
    Senior Member
    สมัครเมื่อ
    Oct 2012
    โพสต์
    797
    Thanks
    1,736
    Thanked 0 Times in 0 Posts
    ขอบคุณครับ

+ ตอบกลับกระทู้

ข้อมูลกระทู้

Users Browsing this Thread

ในขณะนี้มี 1 ท่านดูกระทู้อยู่. (0 สมาชิกและ 1 ผู้เยี่ยมชม)

     

กฎการโพสต์ข้อความ

  • ท่าน ไม่สามารถ ตั้งกระทู้ใหม่ได้
  • ท่าน ไม่สามารถ ตอบกระทู้ได้
  • ท่าน ไม่สามารถ แนบไฟล์ได้
  • ท่าน ไม่สามารถ แก้ไขข้อความโพสต์ได้
  • BB code สถานะ เปิด
  • Smilies สถานะ เปิด
  • [IMG] สถานะ เปิด
  • HTML สถานะ ปิด